Сегодня идет свободное скачивание без начисления Download

Белый клык / Croc-Blanc (2018) WEB-DLRip [EN / RU, EN Sub]

Ответить на тему
 
Автор Сообщение

Bot ®

Стаж: 2 года 6 месяцев

Сообщений: 10

Создавать темы 11-Июл-2018 22:16

[Цитировать]

Белый клык / Croc-Blanc (2018) WEB-DLRip [EN / RU, EN Sub]- Производство: Франция, Люксембург, США / Superprod, Bidibul Productions, Big Beach Films
Жанр: Мультфильм, Приключения
Режиссер: Александр Эспигарес
Персонажи: Ник Офферман, Рашида Джонс, Пол Джаматти, Флула Борг, Стив Гликман, Доминик Пинон, Виржини Эфира, Эдди Спирс, Рафаэль Персонас, Дэвид Боат ...
Описание:
В основу мультфильма легла классическая повесть американского писателя Джека Лондона, которая рассказывает о приключениях Белого клыка, полусобаки-полуволка, чьи отец, братья и сестры погибли, а их с матерью приручил индеец. Познакомившись с людьми и собаками, Белый клык вскоре понимает, что здесь ему придется сражаться за выживание так же яростно, как и в дикой природе.

Дата мировой премьеры: 21 января 2018, ...
Дата российской премьеры: -
Продолжительность: 01:27:34
Качество видео: WEB-DLRip
Перевод: Отсутствует
Язык озвучки: Английский
Субтитры: Русские, Английские (отдельным файлом)
Видео: MPEG4, XviD, 720x304 (2.35:1), 24.000 fps, 1 845 Kbps (0.351 bit/pixel)
Аудио: AC-3, 48.0 KHz, 6 ch, 384 Kbps, CBR (English)
Mediainfo:
General
Complete name : White.Fang.2018.NF.XviD.WEB-DLRip.avi
Format : AVI
Format/Info : Audio Video Interleave
File size : 1.37 GiB
Duration : 1 h 27 min
Overall bit rate : 2 238 kb/s
Writing application : Lavf57.83.100
Writing library : VirtualDub build 35491/release
Video
ID : 0
Format : MPEG-4 Visual
Format profile : Advanced Simple@L5
Format settings : BVOP2
Format settings, BVOP : 2
Format settings, QPel : No
Format settings, GMC : No warppoints
Format settings, Matrix : Default (MPEG)
Codec ID : XVID
Codec ID/Hint : XviD
Duration : 1 h 27 min
Bit rate : 1 845 kb/s
Width : 720 pixels
Height : 304 pixels
Display aspect ratio : 2.35:1
Frame rate : 24.000 FPS
Color space : YUV
Chroma subsampling : 4:2:0
Bit depth : 8 bits
Scan type : Progressive
Compression mode : Lossy
Bits/(Pixel*Frame) : 0.351
Stream size : 1.13 GiB (82%)
Writing library : XviD 67
Audio
ID : 1
Format : AC-3
Format/Info : Audio Coding 3
Codec ID : 2000
Duration : 1 h 27 min
Bit rate mode : Constant
Bit rate : 384 kb/s
Channel(s) : 6 channels
Channel positions : Front: L C R, Side: L R, LFE
Sampling rate : 48.0 kHz
Frame rate : 31.250 FPS (1536 SPF)
Bit depth : 16 bits
Compression mode : Lossy
Stream size : 241 MiB (17%)
Alignment : Aligned on interleaves
Interleave, duration : 42 ms (1.00 video frame)
Interleave, preload duratio : 512 ms
Service kind : Complete Main
Скриншоты:
Все одноименные релизы в КлубеВремя раздачи: 24/7 (круглосуточно) (до появления первых 3-5 скачавших)
[Профиль] [ЛС]
Показать сообщения:    
Ответить на тему

Текущее время: 21-Сен 14:43

Часовой пояс: UTC + 3



Вы не можете начинать темы
Вы не можете отвечать на сообщения
Вы не можете редактировать свои сообщения
Вы не можете удалять свои сообщения
Вы не можете голосовать в опросах
Вы не можете прикреплять файлы к сообщениям
Вы не можете скачивать файлы