Сегодня идет свободное скачивание без начисления Download

Все только начинается / Just Getting Started (2017) BDRip [H.264]

Ответить на тему
 
Автор Сообщение

Bot ®

Стаж: 4 года 10 месяцев

Сообщений: 8

Создавать темы 11-Июл-2018 22:45

[Цитировать]

Все только начинается / Just Getting Started (2017) BDRip [H.264]- Производство: США, Broad Green Pictures
Жанр: Боевик, Комедия
Режиссер: Рон Шелтон
Продюсер: Билл Гербер, Стив Ричардс, Стив Барнетт
Актеры: Морган Фримен, Томми Ли Джонс, Рене Руссо, Гленн Хедли, Джейн Сеймур, Шерил Ли Ральф, Джо Пантолиано, Элизабет Эшли, Рэйчел Де Ла Торре, Джонни Мэтис
Описание:
Дюк, некогда блистательный адвокат крупных преступных группировок, находясь под программой по защите свидетелей, зажигает на роскошной вилле Капри, устраивая безбашенные праздники жизни для своих гостей и превращая будни в яркий Jazz. Однажды под Рождество на виллу приезжает брутальный экс-агент ФБР Лео и переворачивает все вверх дном. Но, как оказалось, все только начинается: вслед за Лео на виллу подтягиваются парни из мафии, имеющие старый зуб на Дюка и Лео. Вечеринка будет жаркой!

Возраст: 16+ (зрителям, достигшим 16 лет)
Рейтинг MPAA: PG-13 (детям до 13 лет просмотр нежелателен)
Дата мировой премьеры: 1 декабря 2017
Дата российской премьеры: 11 января 2018, «Парадиз»
Продолжительность: 01:30:53
Качество видео: BDRip
Перевод: Дублированный (Лицензия)
Субтитры: Aнглийские
Видео: AVC/H.264, 1024x554, ~2122 Kbps
Аудио 1: AC3, 6 ch, 448 kbps - Русский
Аудио 2: AC3, 6 ch, 448 kbps - Английский
Mediainfo:
Just.Getting.Started.2017.BDRip.AVC.mkv
Format : Matroska
Format version : Version 2
File size : 1.91 GiB
Duration : 1 h 30 min
Overall bit rate : 3 012 kb/s
Movie name : Just Getting Started (2017) from ExKinoRay
Encoded date : UTC 2018-07-07 12:38:37
Writing application : mkvmerge v5.6.0 ('Kenya Kane') built on May 27 2012 16:44:04
Writing library : libebml v1.2.3 + libmatroska v1.3.0
Video
ID : 1
Format : AVC
Format/Info : Advanced Video Codec
Format profile : High@L4.1
Format settings : CABAC / 11 Ref Frames
Format settings, CABAC : Yes
Format settings, ReFrames : 11 frames
Codec ID : V_MPEG4/ISO/AVC
Duration : 1 h 30 min
Bit rate : 2 122 kb/s
Width : 1 024 pixels
Height : 426 pixels
Display aspect ratio : 2.40:1
Frame rate mode : Constant
Frame rate : 23.976 (23976/1000) FPS
Color space : YUV
Chroma subsampling : 4:2:0
Bit depth : 8 bits
Scan type : Progressive
Bits/(Pixel*Frame) : 0.203
Stream size : 1.31 GiB (68%)
Title : Enigma
Writing library : x264 core 152 r2851 ba24899
Encoding settings : cabac=1 / ref=11 / deblock=1:-2:-2 / analyse=0x3:0x113 / me=umh / subme=10 / psy=1 / psy_rd=1.05:0.10 / mixed_ref=1 / me_range=32 / chroma_me=1 / trellis=2 / 8x8dct=1 / cqm=0 / deadzone=21,11 / fast_pskip=0 / chroma_qp_offset=-3 / threads=12 / lookahead_threads=3 / sliced_threads=0 / nr=0 / decimate=0 / interlaced=0 / bluray_compat=0 / constrained_intra=0 / bframes=10 / b_pyramid=2 / b_adapt=2 / b_bias=0 / direct=3 / weightb=1 / open_gop=0 / weightp=2 / keyint=240 / keyint_min=23 / scenecut=40 / intra_refresh=0 / rc_lookahead=40 / rc=2pass / mbtree=0 / bitrate=2122 / ratetol=1.0 / qcomp=0.60 / qpmin=0 / qpmax=51 / qpstep=4 / cplxblur=20.0 / qblur=0.5 / vbv_maxrate=50000 / vbv_bufsize=62500 / nal_hrd=none / filler=0 / ip_ratio=1.40 / pb_ratio=1.30 / aq=3:0.80
Language : English
Default : Yes
Forced : No
Color range : Limited
Color primaries : BT.709
Transfer characteristics : BT.709
Matrix coefficients : BT.709
Audio #1
ID : 2
Format : AC-3
Format/Info : Audio Coding 3
Codec ID : A_AC3
Duration : 1 h 30 min
Bit rate mode : Constant
Bit rate : 448 kb/s
Channel(s) : 6 channels
Channel positions : Front: L C R, Side: L R, LFE
Sampling rate : 48.0 kHz
Frame rate : 31.250 FPS (1536 SPF)
Bit depth : 16 bits
Compression mode : Lossy
Stream size : 291 MiB (15%)
Title : Dub (R5)
Language : Russian
Service kind : Complete Main
Default : Yes
Forced : No
Audio #2
ID : 3
Format : AC-3
Format/Info : Audio Coding 3
Codec ID : A_AC3
Duration : 1 h 30 min
Bit rate mode : Constant
Bit rate : 448 kb/s
Channel(s) : 6 channels
Channel positions : Front: L C R, Side: L R, LFE
Sampling rate : 48.0 kHz
Frame rate : 31.250 FPS (1536 SPF)
Bit depth : 16 bits
Compression mode : Lossy
Stream size : 291 MiB (15%)
Language : English
Service kind : Complete Main
Default : No
Forced : No
Text
ID : 4
Format : UTF-8
Codec ID : S_TEXT/UTF8
Codec ID/Info : UTF-8 Plain Text
Language : English
Default : No
Forced : No
Menu
00:00:00.000 : en:Chapter 1
00:06:37.647 : en:Chapter 2
00:11:13.506 : en:Chapter 3
00:15:24.131 : en:Chapter 4
00:22:28.722 : en:Chapter 5
00:28:59.195 : en:Chapter 6
00:34:12.467 : en:Chapter 7
00:40:40.646 : en:Chapter 8
00:49:58.495 : en:Chapter 9
00:54:15.377 : en:Chapter 10
01:00:56.277 : en:Chapter 11
01:05:43.022 : en:Chapter 12
01:12:51.367 : en:Chapter 13
01:18:13.897 : en:Chapter 14
01:22:24.272 : en:Chapter 15
01:25:26.788 : en:Chapter 16
Скриншоты:
Все одноименные релизы в КлубеВремя раздачи: 24/7 (до появления первых 3-5 скачавших)
[Профиль] [ЛС]
Показать сообщения:    
Ответить на тему

Текущее время: 21-Сен 14:43

Часовой пояс: UTC + 3



Вы не можете начинать темы
Вы не можете отвечать на сообщения
Вы не можете редактировать свои сообщения
Вы не можете удалять свои сообщения
Вы не можете голосовать в опросах
Вы не можете прикреплять файлы к сообщениям
Вы не можете скачивать файлы