Сегодня идет свободное скачивание без начисления Download

Муму (1959) TVRip

Ответить на тему
 
Автор Сообщение

Bot ®

Стаж: 2 года 10 месяцев

Сообщений: 14

Создавать темы 11-Июл-2018 23:00

[Цитировать]

Муму (1959) TVRip- Русское название: Муму
Год выпуска: 1959 (СССР)
Жанр: Драма
Описание фильма:
Экранизация одноименной повести И. С. Тургенева.
Режиссер: Анатолий Бобровский, Евгений Тетерин
Актеры: Афанасий Кочетков, Нина Гребешкова, Елена Полевицкая, Игорь Безяев, Иван Рыжов, Евгений Тетерин, Леонид Кмит, Варвара Мясникова, Александра Денисова, Александра Федорова
Мировая премьера: 10 ноября 1959

Продолжительность: 01:08:08
Видеокодек: Xvid
Битрейт видео: ~1902 Кбит/сек
Размер кадра: 688x528
Качество видео: TVRip
Аудиокодек: Audio Coding 3
Битрейт аудио: 256 Кбит/сек, 2 канала, 48,0 КГц
Скриншоты
MediaInfo
Общее
Полное имя : D:\Фильмы\Муму.avi
Формат : AVI
Формат/Информация : Audio Video Interleave
Размер файла : 1,03 Гбайт
Продолжительность : 1 ч. 8 м.
Общий поток : 2167 Кбит/сек
Программа кодирования : VirtualDubMod 1.5.10.2 (build 2540/release)
Библиотека кодирования : VirtualDubMod build 2540/release
Видео
Идентификатор : 0
Формат : MPEG-4 Visual
Профиль формата : Advanced Simple@L5
Параметр BVOP формата : 2
Параметр QPel формата : Нет
Параметр GMC формата : Без точки перехода
Параметр матрицы формата : Default (MPEG)
Режим смешивания : Сжатый битовый поток
Идентификатор кодека : XVID
Идентификатор кодека/Подсказка : XviD
Продолжительность : 1 ч. 8 м.
Битрейт : 1902 Кбит/сек
Ширина : 688 пикселей
Высота : 528 пикселей
Соотношение сторон : 4:3
Частота кадров : 25,000 кадров/сек
Цветовое пространство : YUV
Субдискретизация насыщенности : 4:2:0
Битовая глубина : 8 бит
Тип развёртки : Прогрессивная
Метод сжатия : С потерями
Бит/(Пиксели*Кадры) : 0.209
Размер потока : 927 Мбайт (88%)
Библиотека кодирования : XviD 1.1.2 (UTC 2006-11-01)
Аудио
Идентификатор : 1
Формат : AC-3
Формат/Информация : Audio Coding 3
Расширение режима : CM (complete main)
Идентификатор кодека : 2000
Продолжительность : 1 ч. 8 м.
Вид битрейта : Постоянный
Битрейт : 256 Кбит/сек
Каналы : 2 канала
Расположение каналов : Front: L R
Частота : 48,0 КГц
Битовая глубина : 16 бит
Метод сжатия : С потерями
Размер потока : 125 Мбайт (12%)
Выравнивание : Разделение по промежуткам
Продолжительность промежутка : 40 мс. (1,00 видеокадр)
Время предзагрузки промежутка : 500 мс.
Время раздачи: С 14:00 до 7:30
[Профиль] [ЛС]
Показать сообщения:    
Ответить на тему

Текущее время: 21-Сен 15:28

Часовой пояс: UTC + 3



Вы не можете начинать темы
Вы не можете отвечать на сообщения
Вы не можете редактировать свои сообщения
Вы не можете удалять свои сообщения
Вы не можете голосовать в опросах
Вы не можете прикреплять файлы к сообщениям
Вы не можете скачивать файлы