Сегодня идет свободное скачивание без начисления Download

(Rock) Разные люди. Презентация альбома "SuperБизоны" (Red Club.20.12.02) - 2002, FLAC (image+.cue), lossless

Ответить на тему
 
Автор Сообщение

Bot ®

Стаж: 4 года 3 месяца

Сообщений: 11

Создавать темы 11-Июл-2018 23:30

[Цитировать]

Разные люди. Презентация альбома "SuperБизоны" (Red Club.20.12.02)
Жанр: Rock
Год выпуска диска: 2002
Производитель диска: самопал
Аудио кодек: FLAC
Тип рипа: image+.cue
Битрейт аудио: lossless
Продолжительность: 67 мин 53 сек
Трэклист:
1.Рок-н-ролльно
2.UZI
3.John Lennon
4.Дом
5.Ангел
6.SuperБизоны
7.Жизнь
8.Русская тоска
9.911
10.Беспечный ковбой
11.Субмарина
12.Волкодавы
Разные люди:
Александр Чернецкий - вокал, ак.гитара, песни
Андрей «Худой» Васильев - эл.гитара
Наиль Кадыров - бас-гитара
Борис Шавейников - ударные
Александр Гордеев - губная гармоника
Доп. информация: Запись сделана в Питерском "Red Club" 20 декабря 2002 года, через неделю после событий на программе "Земля-Воздух" http://realmt.org/viewtopic.php?t=1637022
Отчёт EAC
Exact Audio Copy V0.99 prebeta 4 from 23. January 2008
Отчёт EAC об извлечении, выполненном 18. апреля 2009, 5:27
Разные люди / Презентация альбома "SuperБизоны" (Red Club.20.12.02)
Дисковод: _NEC DVD_RW ND-3540A Adapter: 1 ID: 0
Режим чтения : Достоверность
Использование точного потока : Да
Отключение кэша аудио : Да
Использование указателей C2 : Нет
Коррекция смещения при чтении : 48
Способность читать области Lead-in и Lead-out : Нет
Заполнение пропущенных сэмплов тишиной : Да
Удаление блоков с тишиной в начале и конце : Нет
При вычислениях CRC использовались нулевые сэмплы : Да
Интерфейс : Установленный внешний ASPI-интерфейс
Выходной формат : Пользовательский кодировщик
Выбранный битрейт : 768 kBit/s
Качество : Высокий
Добавление ID3-тэга : Нет
Утилита сжатия : C:\Program Files\Exact Audio Copy\FLAC\FLAC.EXE
Дополнительные параметры : -6 -V -T "ARTIST=%a" -T "TITLE=%t" -T "ALBUM=%g" -T "DATE=%y" -T "TRACKNUMBER=%n" -T "GENRE=%m" -T "COMMENT=%e" %s -o %d
TOC извлечённого CD
Трек | Старт | Длительность | Начальный сектор | Конечный сектор
---------------------------------------------------------------------
1 | 0:00.00 | 3:55.16 | 0 | 17640
2 | 3:55.16 | 6:11.63 | 17641 | 45528
3 | 10:07.04 | 6:37.01 | 45529 | 75304
4 | 16:44.05 | 7:28.47 | 75305 | 108951
5 | 24:12.52 | 6:16.46 | 108952 | 137197
6 | 30:29.23 | 5:57.28 | 137198 | 164000
7 | 36:26.51 | 4:52.47 | 164001 | 185947
8 | 41:19.23 | 4:55.10 | 185948 | 208082
9 | 46:14.33 | 4:45.03 | 208083 | 229460
10 | 50:59.36 | 5:46.12 | 229461 | 255422
11 | 56:45.48 | 3:42.43 | 255423 | 272115
12 | 60:28.16 | 7:23.44 | 272116 | 305384
Характеристики диапазона извлечения и сообщения об ошибках
Выбранный диапазон
Имя файла C:\Documents and Settings\All Users\Документы\Моя музыка\РЛ_92-93\RL_Red Club(20.12.02)\Разные люди - Презентация альбома SuperБизоны (Red Club.20.12.02).wav
Пиковый уровень 89.1 %
Качество диапазона 99.9 %
CRC копии 071E0FD7
Копирование... OK
Ошибок не произошло
AccurateRip: сводка
Трек 1 нет в базе данных
Трек 2 нет в базе данных
Трек 3 нет в базе данных
Трек 4 нет в базе данных
Трек 5 нет в базе данных
Трек 6 нет в базе данных
Трек 7 нет в базе данных
Трек 8 нет в базе данных
Трек 9 нет в базе данных
Трек 10 нет в базе данных
Трек 11 нет в базе данных
Трек 12 нет в базе данных
Ни одного трека нет в базе AccurateRip
Конец отчёта
Audiochecker
Начато: суббота, 18. 04. 2009. - 22:22.22
Найдено файлов: 1
1 -===- D:\Новая папка\UZI.wav
Заключение: этот трек - CDDA с вероятностью 99%
Завершено: суббота, 18. 04. 2009. - 22:34.16 (Время операции: 0:11.54)
Спектр
[Профиль] [ЛС]
Показать сообщения:    
Ответить на тему

Текущее время: 21-Сен 14:44

Часовой пояс: UTC + 3



Вы не можете начинать темы
Вы не можете отвечать на сообщения
Вы не можете редактировать свои сообщения
Вы не можете удалять свои сообщения
Вы не можете голосовать в опросах
Вы не можете прикреплять файлы к сообщениям
Вы не можете скачивать файлы