Сегодня идет свободное скачивание без начисления Download

Неповиновение / Disobedience (2017) BDRemux [H.264/1080p] [EN / EN, Sp Sub]

Ответить на тему
 
Автор Сообщение

Bot ®

Стаж: 3 года 3 месяца

Сообщений: 14

Создавать темы 12-Июл-2018 00:00

[Цитировать]

Неповиновение / Disobedience (2017) BDRemux [H.264/1080p] [EN / EN, Sp Sub]
- Производство: Великобритания, Ирландия, США / Braven Films, Element Pictures, Film 4, Stage 6 Films
Жанр: драма, мелодрама
Режиссер: Себастьян Лелио
Актеры: Рэйчел Вайс, Рэйчел МакАдамс, Алессандро Нивола, Энтон Лессер, Аллан Кордунер, Николас Вудесон, Дэвид Флишман, Стив Ферст, Тревор Аллан Дейвис, Софиа Браун, Бернис Стиджерс
Описание:
Женщина возвращается в свой ортодоксальный еврейский дом после смерти раввина, своего отца. Общественное возмущение вызывает интерес, возникший у нее к подруге детства.

Рейтинг MPAA: R (лицам до 17 лет обязательно присутствие взрослого)
Продолжительность: 01:54:39
Качество видео: BDRemux
Перевод: Отсутствует
Язык озвучки: Английский
Субтитры: английские, испанские
Видео: AVC/H.264, 1920x1080 (16:9), 31339 kbps, 23.976 fps, 0.630 bpp
Аудио: DTS-HD MA, 6 ch, 3135 kbps (Core: 6 ch, 1509 kbps) - английский
MediaInfo
General
Unique ID : 176973491343725205857213502802023235358 (0x8523DAC94DF68E7B88E9296802093F1E)
Complete name : Disobedience.2017.REMUX.1080p.BluRay.AVC.DTS-HD.MA.5.1-iFT\Disobedience.2017.REMUX.1080p.BluRay.AVC.DTS-HD.MA.5.1-iFT.mkv
Format : Matroska
Format version : Version 4 / Version 2
File size : 27.6 GiB
Duration : 1 h 54 min
Overall bit rate mode : Variable
Overall bit rate : 34.5 Mb/s
Movie name : Disobedience.2017.REMUX.1080p.BluRay.AVC.DTS-HD.MA.5.1-iFT
Encoded date : UTC 2018-07-11 02:50:02
Writing application : mkvmerge v9.9.0 ('Pick Up') 64bit
Writing library : libebml v1.3.4 + libmatroska v1.4.5
Video
ID : 1
Format : AVC
Format/Info : Advanced Video Codec
Format profile : High@L4.1
Format settings, CABAC : Yes
Format settings, ReFrames : 4 frames
Format settings, GOP : M=3, N=12
Codec ID : V_MPEG4/ISO/AVC
Duration : 1 h 54 min
Bit rate mode : Variable
Bit rate : 31.3 Mb/s
Maximum bit rate : 35.0 Mb/s
Width : 1 920 pixels
Height : 1 080 pixels
Display aspect ratio : 16:9
Frame rate mode : Constant
Frame rate : 23.976 (24000/1001) FPS
Color space : YUV
Chroma subsampling : 4:2:0
Bit depth : 8 bits
Scan type : Progressive
Bits/(Pixel*Frame) : 0.630
Stream size : 25.1 GiB (91%)
Default : Yes
Forced : No
Audio
ID : 2
Format : DTS
Format/Info : Digital Theater Systems
Format profile : MA / Core
Mode : 16
Format settings, Endianness : Big
Codec ID : A_DTS
Duration : 1 h 54 min
Bit rate mode : Variable / Constant
Bit rate : 3 136 kb/s / 1 509 kb/s
Channel(s) : 6 channels
Channel positions : Front: L C R, Side: L R, LFE
Sampling rate : 48.0 kHz
Frame rate : 93.750 FPS (512 spf)
Bit depth : 24 bits
Compression mode : Lossless / Lossy
Stream size : 2.51 GiB (9%)
Language : English
Default : Yes
Forced : No
Text #1
ID : 3
Format : PGS
Muxing mode : zlib
Codec ID : S_HDMV/PGS
Codec ID/Info : Picture based subtitle format used on BDs/HD-DVDs
Duration : 1 h 51 min
Bit rate : 7 008 b/s
Count of elements : 2106
Stream size : 5.61 MiB (0%)
Language : English
Default : Yes
Forced : No
Text #2
ID : 4
Format : PGS
Muxing mode : zlib
Codec ID : S_HDMV/PGS
Codec ID/Info : Picture based subtitle format used on BDs/HD-DVDs
Duration : 1 h 53 min
Bit rate : 5 325 b/s
Count of elements : 1706
Stream size : 4.30 MiB (0%)
Language : Spanish
Default : No
Forced : No
Menu
00:00:00.000 : en:Chapter 01
00:03:43.014 : en:Chapter 02
00:09:09.590 : en:Chapter 03
00:16:38.998 : en:Chapter 04
00:21:25.617 : en:Chapter 05
00:25:31.655 : en:Chapter 06
00:28:41.302 : en:Chapter 07
00:36:43.784 : en:Chapter 08
00:41:19.894 : en:Chapter 09
00:50:03.375 : en:Chapter 10
00:57:51.092 : en:Chapter 11
01:02:46.179 : en:Chapter 12
01:10:34.230 : en:Chapter 13
01:17:28.727 : en:Chapter 14
01:20:28.949 : en:Chapter 15
01:25:35.338 : en:Chapter 16
01:31:59.472 : en:Chapter 17
01:37:21.710 : en:Chapter 18
01:44:02.819 : en:Chapter 19
01:49:47.247 : en:Chapter 20
01:54:39.455 : en:Chapter 21
Скриншоты:
Все одноименные релизы в КлубеВремя раздачи: с 13:00 до 23:00
[Профиль] [ЛС]
Показать сообщения:    
Ответить на тему

Текущее время: 21-Сен 15:30

Часовой пояс: UTC + 3



Вы не можете начинать темы
Вы не можете отвечать на сообщения
Вы не можете редактировать свои сообщения
Вы не можете удалять свои сообщения
Вы не можете голосовать в опросах
Вы не можете прикреплять файлы к сообщениям
Вы не можете скачивать файлы