Сегодня идет свободное скачивание без начисления Download

Udemy | Brad Hussey | Bootstrap to WordPress. Theme Development (2014) [H.264/720p] [EN]

Ответить на тему
 
Автор Сообщение

Bot ®

Стаж: 2 года 10 месяцев

Сообщений: 10

Создавать темы 06-Авг-2018 20:00

[Цитировать]

Udemy | Bootstrap to WordPress. Theme Development | Brad Hussey (2014) [EN] - Автор (режиссер): Brad Hussey
Жанр: Вёрстка, HTML5, CSS3, Bootstrap, WordPress
Описание:
Bootstrap to WordPress - великолепный курс, в котором вы создадите полноценный сайт с нуля и в этом начинании, вам будет помогать преподаватель с большим стажем и звезда Udemy.com - Брэд Хасси.
Во время занятий, вы будете изучать HTML5, CSS3, Bootstrap, php и Wordpress. Все лекции идеальной длины, что даст вам время на усвоение материала, перед началом новой лекции. А если вам не терпится посмотреть на сайт, который вы будете создавать, вы можете ознакомиться с ним http://bootstraptowordpress.com/
Продолжительность: 12:03:38
Качество видео: PCRec
Язык: Английский
Видео: AVC/H.264, 1280х720, ~578 Kbps
Аудио: AAC, 2 ch, 52.6 Kbps
Mediainfo:
Код:
Format                      : MPEG-4
Format profile              : Base Media
Codec ID                    : isom (isom/avc1/mp42)
File size                   : 49.5 MiB
Duration                    : 10mn 55s
Overall bit rate mode       : Variable
Overall bit rate            : 633 Kbps
Encoded date                : UTC 2015-01-12 22:08:06
Tagged date                 : UTC 2015-01-12 22:08:06
Video
ID                          : 1
Format                      : AVC
Format/Info                 : Advanced Video Codec
Format profile              : Baseline@L3.1
Format settings, CABAC      : No
Format settings, ReFrames   : 3 frames
Codec ID                    : avc1
Codec ID/Info               : Advanced Video Coding
Duration                    : 10mn 55s
Bit rate                    : 578 Kbps
Maximum bit rate            : 5 116 Kbps
Width                       : 1 280 pixels
Height                      : 720 pixels
Display aspect ratio        : 16:9
Frame rate mode             : Constant
Frame rate                  : 30.000 fps
Color space                 : YUV
Chroma subsampling          : 4:2:0
Bit depth                   : 8 bits
Scan type                   : Progressive
Bits/(Pixel*Frame)          : 0.021
Stream size                 : 45.2 MiB (91%)
Writing library             : Zencoder Video Encoding System
Encoded date                : UTC 2015-01-12 22:07:03
Tagged date                 : UTC 2015-01-12 22:08:07
Color range                 : Limited
Color primaries             : BT.709
Transfer characteristics    : BT.709
Matrix coefficients         : BT.709
Audio
ID                          : 2
Format                      : AAC
Format/Info                 : Advanced Audio Codec
Format profile              : LC
Codec ID                    : 40
Duration                    : 10mn 55s
Bit rate mode               : Variable
Bit rate                    : 52.6 Kbps
Maximum bit rate            : 109 Kbps
Channel(s)                  : 2 channels
Channel positions           : Front: L R
Sampling rate               : 44.1 KHz
Frame rate                  : 43.066 fps (1024 spf)
Compression mode            : Lossy
Stream size                 : 4.11 MiB (8%)
Encoded date                : UTC 2015-01-12 22:08:07
Tagged date                 : UTC 2015-01-12 22:08:07
Скриншоты:
Время раздачи: с 12:00 до 24:00
[Профиль] [ЛС]
Показать сообщения:    
Ответить на тему

Текущее время: 23-Окт 23:17

Часовой пояс: UTC + 3



Вы не можете начинать темы
Вы не можете отвечать на сообщения
Вы не можете редактировать свои сообщения
Вы не можете удалять свои сообщения
Вы не можете голосовать в опросах
Вы не можете прикреплять файлы к сообщениям
Вы не можете скачивать файлы