Сегодня идет свободное скачивание без начисления Download

Devil May Cry 5 E3 2018 Announcement (2018) WEB-DL [VP9/2160p-LQ] [4K, Трейлер] [EN]

Ответить на тему
 
Автор Сообщение

Bot ®

Стаж: 3 года 7 месяцев

Сообщений: 6

Создавать темы 07-Авг-2018 21:00

[Цитировать]

Devil May Cry 5 E3 2018 Announcement (2018) WEB-DL [VP9/2160p-LQ] [4K, Трейлер] [EN] - Производство: Capcom R&D Division 1
Жанр: Анимация
Режиссер: Хидэаки Ицуно
Актеры: Хидэаки Ицуно
Описание:
Devil May Cry 5 — видеоигра в жанре слэшер, разрабатывающаяся и издающаяся компанией Capcom. Пятая игра в одноимённой серии и пятая же в хронологии. Анонс игры состоялся в июне 2018 года. Сама игра планируется к выпуску в марте 2019 года для платформ PlayStation 4, Xbox One и Windows.
Дата мировой премьеры: 2019
Релиз от: Capcom
Продолжительность: 00:02:39
Качество видео: HDRip
Перевод: Отсутствует
Язык озвучки: Английский
Субтитры: Отсутсвуют
Видео: VP9, 3840x2160, ~21.9 Mbps
Аудио: Vorbis, 2 ch, 128 Kbps - английский
Mediainfo:
Общее
Уникальный идентификатор : 162837703129696147970057070440157575515 (0x7A81669E51EE21A31C7E3970C78C795B)
Полное имя : D:\File\Devil May Cry 5 Trailer (4K 60FPS HD) - E3 2018 Announcement Trailer.mkv
Формат : Matroska
Версия формата : Version 4 / Version 2
Размер файла : 427 Мбайт
Продолжительность : 2 м. 39 с.
Режим общего битрейта : Переменный
Общий поток : 22,5 Мбит/сек
Программа кодирования : Lavf56.40.101
Библиотека кодирования : Lavf56.40.101
Видео
Идентификатор : 1
Формат : VP9
Идентификатор кодека : V_VP9
Продолжительность : 2 м. 39 с.
Битрейт : 21,9 Мбит/сек
Ширина : 3840 пикселей
Высота : 2160 пикселей
Соотношение сторон : 16:9
Режим частоты кадров : Переменный
Размер потока : 416 Мбайт (97%)
Default : Да
Forced : Нет
Аудио
Идентификатор : 2
Формат : Vorbis
Параметр Floor формата : 1
Идентификатор кодека : A_VORBIS
Продолжительность : 2 м. 39 с.
Вид битрейта : Переменный
Битрейт : 128 Кбит/сек
Каналы : 2 канала
Частота : 44,1 КГц
Метод сжатия : С потерями
Размер потока : 2,43 Мбайт (1%)
Программа кодирования : Google
Default : Да
Forced : Нет
Скриншоты:
Все одноименные релизы в КлубеВремя раздачи: 24/7 (до появления первых 3-5 скачавших)
[Профиль] [ЛС]
Показать сообщения:    
Ответить на тему

Текущее время: 24-Окт 00:35

Часовой пояс: UTC + 3



Вы не можете начинать темы
Вы не можете отвечать на сообщения
Вы не можете редактировать свои сообщения
Вы не можете удалять свои сообщения
Вы не можете голосовать в опросах
Вы не можете прикреплять файлы к сообщениям
Вы не можете скачивать файлы