Сегодня идет свободное скачивание без начисления Download

Итальянская гонщица / Veloce come il vento (2016) DVB [H.264/1080i-LQ] [MVO]

Ответить на тему
 
Автор Сообщение

Bot ®

Стаж: 2 года 11 месяцев

Сообщений: 11

Создавать темы 10-Авг-2018 12:45

[Цитировать]

Итальянская гонщица / Veloce come il vento (2016) DVB [H.264/1080i-LQ] - Производство: Италия / Fandango, Rai Cinema, Ministero dei Beni e delle Attività Culturali e del Turismo (MiBACT)
Жанр: Драма, Автоспорт
Режиссер: Маттео Ровере
Продюсер: Доменико Прокаччи, Элиа Маццони
Актеры: Стефано Аккорси, Матильда Де Ангелис, Лоренцо Джоиелли, Паоло Грациози, Ринат Хисматулин, Татьяна Лутер, Роберта Маттеи, Кристина Спина
Описание:
У семьи Мартино всегда были моторное масло и бензин в крови. Они строили машины и участвовали в гонках на протяжении нескольких поколений. Кольцевые гонки, ралли, гонки на выносливость — их привлекало абсолютно всё. В силу обстоятельств глава семьи Марио должен уступить дорогу своей молодой и исключительно талантливой дочери Джулии. К ней присоединяется 40-летний брат Лорис, бывший гонщик, а ныне заядлый наркоман, но с исключительным чувством гоночной траектории и очень хорошо разбирающийся в моторах. Вместе они должны вернуться на трек и победить, узнав по пути, что значит быть семьёй и насколько это может оказаться тяжело…

Возраст: 16+ (зрителям, достигшим 16 лет)
Продолжительность: 01:42:31
Качество видео: DVB [1080i]
Перевод: Многоголосый закадровый, профессиональный
Субтитры: отсутствуют
Видео: AVC/H.264, 1920x1080, ~5771 Kbps
Аудио: MP2, 2 ch, 192 Kbps
Mediainfo:
Общее
Идентификатор : 16 (0x10)
Полное имя : Veloce come il vento_HD.ts
Формат : MPEG-TS
Размер файла : 4,49 Гбайт
Продолжительность : 1 ч. 42 м.
Режим общего битрейта : Переменный
Общий поток : 6275 Кбит/сек
Видео
Идентификатор : 1502 (0x5DE)
Идентификатор меню : 502 (0x1F6)
Формат : AVC
Формат/Информация : Advanced Video Codec
Профиль формата : High@L4
Настройки формата : CABAC / 3 Ref Frames
Параметр CABAC формата : Да
Параметр RefFrames формата : 3 кадра
Параметр GOP формата : M=4, N=32
Идентификатор кодека : 27
Продолжительность : 1 ч. 42 м.
Битрейт : 5771 Кбит/сек
Ширина : 1920 пикселей
Высота : 1080 пикселей
Соотношение сторон : 16:9
Частота кадров : 25,000 кадров/сек
Стандарт вещания : PAL
Цветовое пространство : YUV
Субдискретизация насыщенности : 4:2:0
Битовая глубина : 8 бит
Тип развёртки : Чересстрочная
Метод сохранения типа развёртки : Раздельные поля
Порядок развёртки : Верхнее поле первое
Бит/(Пиксели*Кадры) : 0.111
Размер потока : 4,13 Гбайт (92%)
Цветовой диапазон : Limited
Основные цвета : BT.709
Характеристики трансфера : BT.709
Коэффициенты матрицы : BT.709
Аудио
Идентификатор : 2502 (0x9C6)
Идентификатор меню : 502 (0x1F6)
Формат : MPEG Audio
Версия формата : Version 1
Профиль формата : Layer 2
Идентификатор кодека : 4
Продолжительность : 1 ч. 42 м.
Вид битрейта : Постоянный
Битрейт : 192 Кбит/сек
Каналы : 2 канала
Частота : 48,0 КГц
Метод сжатия : С потерями
Задержка видео : 21 мс.
Размер потока : 141 Мбайт (3%)
Язык : std
Язык, дополнительно : Clean effects
Скриншоты:
Все одноименные релизы в КлубеВремя раздачи: Сб-Вс с 09:00 до 23:30 (до появления первых 3-5 скачавших)
[Профиль] [ЛС]
Показать сообщения:    
Ответить на тему

Текущее время: 24-Окт 00:46

Часовой пояс: UTC + 3



Вы не можете начинать темы
Вы не можете отвечать на сообщения
Вы не можете редактировать свои сообщения
Вы не можете удалять свои сообщения
Вы не можете голосовать в опросах
Вы не можете прикреплять файлы к сообщениям
Вы не можете скачивать файлы