Сегодня идет свободное скачивание без начисления Download

(West Coast Blues/Modern Electric Blues) J.J. Malone - Highway 99 [Fedora] - 1997, FLAC (tracks+.cue), lossless

Ответить на тему
 
Автор Сообщение

Bot ®

Стаж: 4 года 6 месяцев

Сообщений: 11

Создавать темы 10-Авг-2018 14:15

[Цитировать]

J.J. Malone - Highway 99 [Fedora]
Жанр: West Coast Blues/Modern Electric Blues
Год выпуска диска: 1997
Производитель диска: Fedora Records FCD 5003
Аудио кодек: FLAC
Тип рипа: tracks+.cue
Битрейт аудио: lossless
Продолжительность: 58:04
Трэклист:
01. Black nights (4:11)
02. Daddy rolling stones (5:08)
03. Highway 99 (5:23)
04. Biscuit bakin' woman (4:26)
05. Sail on (5:12)
06. Killing floor (5:55)
07. Old fashionned blues (4:26)
08. They call it the craw (4:10)
09. Long way from San Antone (4:22)
10. Mary anne (5:16)
11. Automobile blues (4:03)
12. Sittin' here thinkin' (5:32)

Каталог 'Fedora Records' (ссылки на альбомы)--Recorded at Double "D" Music, Fresno, CA on June 26-27, 1997.
J.J. Malone - Vocals, guitar
Bobby Logan - Tenor saxophone (1,6,9,10,12)
Clarence Walker - Guitar
Jeff Levine - Piano (2,3,5,9,10) & Organ (4, 7, 9,12)
Jeff Henry - Bass
Chris Millar - Drums
EAC
Exact Audio Copy V0.99 prebeta 4 from 23. January 2008
EAC extraction logfile from 24. June 2009, 22:02
JJ Malone / Highway 99
Used drive : PLEXTOR CD-R PX-230A Adapter: 1 ID: 1
Read mode : Secure
Utilize accurate stream : Yes
Defeat audio cache : Yes
Make use of C2 pointers : No
Read offset correction : 738
Overread into Lead-In and Lead-Out : No
Fill up missing offset samples with silence : Yes
Delete leading and trailing silent blocks : No
Null samples used in CRC calculations : Yes
Used interface : Installed external ASPI interface
Gap handling : Appended to previous track
Used output format : User Defined Encoder
Selected bitrate : 1024 kBit/s
Quality : High
Add ID3 tag : Yes
Command line compressor : C:\Program Files\Exact Audio Copy\1\FLAC\FLAC.EXE
Additional command line options : -6 -V -T "ARTIST=%a" -T "TITLE=%t" -T "ALBUM=%g" -T "DATE=%y" -T "TRACKNUMBER=%n" -T "GENRE=%m" -T "COMMENT=%e" %s -o %d
TOC of the extracted CD
Track | Start | Length | Start sector | End sector
---------------------------------------------------------
1 | 0:00.00 | 4:10.70 | 0 | 18819
2 | 4:10.70 | 5:07.50 | 18820 | 41894
3 | 9:18.45 | 5:23.25 | 41895 | 66144
4 | 14:41.70 | 4:26.22 | 66145 | 86116
5 | 19:08.17 | 5:12.00 | 86117 | 109516
6 | 24:20.17 | 5:55.28 | 109517 | 136169
7 | 30:15.45 | 4:25.47 | 136170 | 156091
8 | 34:41.17 | 4:09.70 | 156092 | 174836
9 | 38:51.12 | 4:22.20 | 174837 | 194506
10 | 43:13.32 | 5:15.60 | 194507 | 218191
11 | 48:29.17 | 4:02.38 | 218192 | 236379
12 | 52:31.55 | 5:32.12 | 236380 | 261291
Track 1
Filename J:\Rips\Rip\01 - Black nights.wav
Pre-gap length 0:00:02.00
Peak level 100.0 %
Track quality 100.0 %
Test CRC A2AAA69E
Copy CRC A2AAA69E
Accurately ripped (confidence 1) [3BD1047A]
Copy OK
Track 2
Filename J:\Rips\Rip\02 - Daddy rolling stones.wav
Pre-gap length 0:00:02.28
Peak level 90.7 %
Track quality 100.0 %
Test CRC D6D426B5
Copy CRC D6D426B5
Accurately ripped (confidence 1) [E8A1AA40]
Copy OK
Track 3
Filename J:\Rips\Rip\03 - Highway 99.wav
Pre-gap length 0:00:02.41
Peak level 79.7 %
Track quality 100.0 %
Test CRC FE10AD85
Copy CRC FE10AD85
Accurately ripped (confidence 1) [ACE63C36]
Copy OK
Track 4
Filename J:\Rips\Rip\04 - Biscuit bakin' woman.wav
Pre-gap length 0:00:02.25
Peak level 78.2 %
Track quality 99.9 %
Test CRC 42BB51FA
Copy CRC 42BB51FA
Accurately ripped (confidence 1) [3E4A7535]
Copy OK
Track 5
Filename J:\Rips\Rip\05 - Sail on.wav
Pre-gap length 0:00:02.30
Peak level 77.1 %
Track quality 100.0 %
Test CRC 645B32C2
Copy CRC 645B32C2
Accurately ripped (confidence 1) [26B6644A]
Copy OK
Track 6
Filename J:\Rips\Rip\06 - Killing floor.wav
Pre-gap length 0:00:02.21
Peak level 70.2 %
Track quality 100.0 %
Test CRC A1D0940D
Copy CRC A1D0940D
Accurately ripped (confidence 1) [AD51F32E]
Copy OK
Track 7
Filename J:\Rips\Rip\07 - Old fashionned blues.wav
Pre-gap length 0:00:02.35
Peak level 74.0 %
Track quality 99.9 %
Test CRC CBC59444
Copy CRC CBC59444
Accurately ripped (confidence 1) [317DF476]
Copy OK
Track 8
Filename J:\Rips\Rip\08 - They call it the craw.wav
Pre-gap length 0:00:02.19
Peak level 75.4 %
Track quality 100.0 %
Test CRC CB90B11A
Copy CRC CB90B11A
Accurately ripped (confidence 1) [14F746CA]
Copy OK
Track 9
Filename J:\Rips\Rip\09 - Long way from San Antone.wav
Pre-gap length 0:00:02.20
Peak level 90.5 %
Track quality 100.0 %
Test CRC 0AF68531
Copy CRC 0AF68531
Accurately ripped (confidence 1) [D88D9065]
Copy OK
Track 10
Filename J:\Rips\Rip\10 - Mary anne.wav
Pre-gap length 0:00:02.38
Peak level 75.6 %
Track quality 99.9 %
Test CRC F716AA83
Copy CRC F716AA83
Accurately ripped (confidence 1) [1BC520B2]
Copy OK
Track 11
Filename J:\Rips\Rip\11 - Automobile blues.wav
Pre-gap length 0:00:02.41
Peak level 70.8 %
Track quality 100.0 %
Test CRC 129285CA
Copy CRC 129285CA
Accurately ripped (confidence 1) [5B206AE2]
Copy OK
Track 12
Filename J:\Rips\Rip\12 - Sittin' here thinkin'.wav
Pre-gap length 0:00:02.06
Peak level 73.8 %
Track quality 100.0 %
Test CRC F169DAAA
Copy CRC F169DAAA
Accurately ripped (confidence 1) [61198121]
Copy OK
All tracks accurately ripped
No errors occurred
End of status report
ACCURIP
[Verification date: 24.06.2009 22:56:47]
[Disc ID: 0019f07c-00f22696-940d9b0c]
Track [ CRC ] Status
01 [3bd1047a] (01/01) Accurately ripped as in pressing(s) #1
02 [e8a1aa40] (01/01) Accurately ripped as in pressing(s) #1
03 [ace63c36] (01/01) Accurately ripped as in pressing(s) #1
04 [3e4a7535] (01/01) Accurately ripped as in pressing(s) #1
05 [26b6644a] (01/01) Accurately ripped as in pressing(s) #1
06 [ad51f32e] (01/01) Accurately ripped as in pressing(s) #1
07 [317df476] (01/01) Accurately ripped as in pressing(s) #1
08 [14f746ca] (01/01) Accurately ripped as in pressing(s) #1
09 [d88d9065] (01/01) Accurately ripped as in pressing(s) #1
10 [1bc520b2] (01/01) Accurately ripped as in pressing(s) #1
11 [5b206ae2] (01/01) Accurately ripped as in pressing(s) #1
12 [61198121] (01/01) Accurately ripped as in pressing(s) #1
Track [ CRC32 ] [W/O NULL] [ LOG ]
-- [673B3736] [B2C3F634]
01 [A2AAA69E] [CE28398F] CRC32
02 [D6D426B5] [7F8260FF] CRC32
03 [FE10AD85] [343396B8] CRC32
04 [42BB51FA] [0D0A0976] CRC32
05 [645B32C2] [EB37F850] CRC32
06 [A1D0940D] [15AF6B6C] CRC32
07 [CBC59444] [80E20D29] CRC32
08 [CB90B11A] [4CE2052D] CRC32
09 [0AF68531] [BDACEFF7] CRC32
10 [F716AA83] [6CFB4D1F] CRC32
11 [129285CA] [E455084E] CRC32
12 [F169DAAA] [8C29823B] CRC32
Рип с оригинального диска.
[Профиль] [ЛС]
Показать сообщения:    
Ответить на тему

Текущее время: 23-Окт 23:29

Часовой пояс: UTC + 3



Вы не можете начинать темы
Вы не можете отвечать на сообщения
Вы не можете редактировать свои сообщения
Вы не можете удалять свои сообщения
Вы не можете голосовать в опросах
Вы не можете прикреплять файлы к сообщениям
Вы не можете скачивать файлы