Сегодня идет свободное скачивание без начисления Download

(Crossover Jazz, Acoustic) John McLaughlin - Thieves and Poets - 2003, APE (image+.cue)

Ответить на тему
 
Автор Сообщение

Bot ®

Стаж: 4 года 3 месяца

Сообщений: 7

Создавать темы 10-Авг-2018 14:15

[Цитировать]

John McLaughlin - Thieves and Poets
Жанр: Crossover Jazz, Acoustic
Издание: UNIVERSAL, 0602498010754, 2003 год
Аудио кодек: APE
Тип рипа: image+.cue
Продолжительность: 0:44:24
Трэклист:
01. Part 1
02. Part 2
03. Part 3
04. My Foolish Heart
05. The Dolphin
06. Stella by Starlight
07. My Romance
Отчёт EAC
Exact Audio Copy V0.99 prebeta 4 from 23. January 2008
Отчёт EAC об извлечении, выполненном 27. июня 2009, 14:16
John McLaughlin / Thieves and Poets
Дисковод: PIONEER DVD-RW DVR-108 Adapter: 4 ID: 1
Режим чтения : Достоверность
Использование точного потока : Да
Отключение кэша аудио : Да
Использование указателей C2 : Нет
Коррекция смещения при чтении : 48
Способность читать области Lead-in и Lead-out : Нет
Заполнение пропущенных сэмплов тишиной : Да
Удаление блоков с тишиной в начале и конце : Нет
При вычислениях CRC использовались нулевые сэмплы : Да
Интерфейс : Встроенный Win32-интерфейс для Win NT/2000
Выходной формат : Внутренние WAV-операции
Формат сэмплов : 44.100 Гц; 16 бит; стерео
TOC извлечённого CD
Трек | Старт | Длительность | Начальный сектор | Конечный сектор
---------------------------------------------------------------------
1 | 0:00.00 | 12:32.48 | 0 | 56447
2 | 12:32.48 | 8:15.59 | 56448 | 93631
3 | 20:48.32 | 5:38.53 | 93632 | 119034
4 | 26:27.10 | 5:03.02 | 119035 | 141761
5 | 31:30.12 | 4:16.66 | 141762 | 161027
6 | 35:47.03 | 4:27.38 | 161028 | 181090
7 | 40:14.41 | 4:09.13 | 181091 | 199778
Характеристики диапазона извлечения и сообщения об ошибках
Выбранный диапазон
Имя файла J:\New Torrents\John McLaughlin - Thieves and Poets\John McLaughlin - Thieves and Poets.wav
Пиковый уровень 100.0 %
Качество диапазона 100.0 %
CRC копии 8D228474
Копирование... OK
Ошибок не произошло
AccurateRip: сводка
Трек 1 точное извлечение (доверие 11) [4B0A5ACC]
Трек 2 точное извлечение (доверие 11) [12F5C591]
Трек 3 точное извлечение (доверие 2) [5B63CB77]
Трек 4 точное извлечение (доверие 2) [FA1DBAE3]
Трек 5 точное извлечение (доверие 2) [19716EB3]
Трек 6 точное извлечение (доверие 2) [4164276C]
Трек 7 точное извлечение (доверие 2) [B8B28884]
Все треки извлечены точно
Конец отчёта
Выкладываю на замену, как своему давнишнему релизу, ушедшему по недоразумению в архив, так и на замену сомнительному релизу .
Раздача содержит сканы (300dpi, tif) на 83.2 МБ - кому это не нужно - не тратьте трафик.
Отличия от моего старого релиза - 1. рип с "родного" издания, а не с пиратки (впрочем, пиратка была вполне себе точная копия. Новый .wav полностью идентичен старому. Так что - те, кто раньше скачал могут не перезакачивать). 2. Комплект сканов с "родного" издания.
[Профиль] [ЛС]
Показать сообщения:    
Ответить на тему

Текущее время: 24-Окт 00:34

Часовой пояс: UTC + 3



Вы не можете начинать темы
Вы не можете отвечать на сообщения
Вы не можете редактировать свои сообщения
Вы не можете удалять свои сообщения
Вы не можете голосовать в опросах
Вы не можете прикреплять файлы к сообщениям
Вы не можете скачивать файлы