Сегодня идет свободное скачивание без начисления Download

Need for Speed (2015) WEBRip [H.264/1080p-LQ] [Трейлер]

Ответить на тему
 
Автор Сообщение

Bot ®

Стаж: 5 лет 9 месяцев

Сообщений: 11

Создавать темы 28-Авг-2018 21:16

[Цитировать]

Need for Speed (2015) WEBRip [Трейлер]- Жанр: Рейсинг, гонки
Разработчики:Ghost Games
Платформы: PC, Xbox One,PlayStation 4
Издатель: Electronic Arts
Дата релиза: 3 ноября 2015
Описание:
EA и Ghost Games отважились на перезапуск серии Need for Speed, отказались от дневных гонок и явно решили возродить старую добрую атмосферу Underground.
Продолжительность: 00:01:11
Качество видео: WEBRip
Перевод: Отсутствует
Видео: AVC/H.264, 1920х1080, ~3324 Кбит/сек
Аудио: AAC, 2 ch, 126 Кбит/сек, CBR
Mediainfo:
Код:
Общее
Полное имя                               : X:\Фильмы\Need for Speed - Official Gamescom 2015 Trailer.mp4
Формат                                   : MPEG-4
Профиль формата                          : Base Media
Идентификатор кодека                     : isom
Размер файла                             : 29,4 Мбайт
Продолжительность                        : 1 м. 11 с.
Общий поток                              : 3455 Кбит/сек
Программа кодирования                    : Lavf56.19.100
Видео
Идентификатор                            : 1
Формат                                   : AVC
Формат/Информация                        : Advanced Video Codec
Профиль формата                          : High@L4
Параметр CABAC формата                   : Да
Параметр ReFrames формата                : 2 кадра
Идентификатор кодека                     : avc1
Идентификатор кодека/Информация          : Advanced Video Coding
Продолжительность                        : 1 м. 11 с.
Битрейт                                  : 3324 Кбит/сек
Ширина                                   : 1920 пикселей
Высота                                   : 1080 пикселей
Соотношение сторон                       : 16:9
Режим частоты кадров                     : Постоянный
Частота кадров                           : 29,970 кадров/сек
Цветовое пространство                    : YUV
Субдискретизация насыщенности            : 4:2:0
Битовая глубина                          : 8 бит
Тип развёртки                            : Прогрессивная
Бит/(Пиксели*Кадры)                      : 0.053
Размер потока                            : 28,3 Мбайт (96%)
Аудио
Идентификатор                            : 2
Формат                                   : AAC
Формат/Информация                        : Advanced Audio Codec
Профиль формата                          : LC
Идентификатор кодека                     : 40
Продолжительность                        : 1 м. 11 с.
Вид битрейта                             : Постоянный
Битрейт                                  : 126 Кбит/сек
Каналы                                   : 2 канала
Расположение каналов                     : Front: L R
Частота                                  : 44,1 КГц
Метод сжатия                             : С потерями
Размер потока                            : 1,07 Мбайт (4%)
Скриншоты:
Время раздачи: До 5 скачавших.
[Профиль] [ЛС]
Показать сообщения:    
Ответить на тему

Текущее время: 20-Окт 19:58

Часовой пояс: UTC + 3



Вы не можете начинать темы
Вы не можете отвечать на сообщения
Вы не можете редактировать свои сообщения
Вы не можете удалять свои сообщения
Вы не можете голосовать в опросах
Вы не можете прикреплять файлы к сообщениям
Вы не можете скачивать файлы