Сегодня идет свободное скачивание без начисления Download

(Rap Hip-Hop) Dan The Automator presents 2K7 - 2006, APE (image+.cue), lossless

Ответить на тему
 
Автор Сообщение

Bot ®

Стаж: 3 года 9 месяцев

Сообщений: 10

Создавать темы 14-Сен-2018 14:16

[Цитировать]

Dan The Automator presents 2K7
Жанр: Rap Hip-Hop
Год выпуска диска: 2006
Производитель диска: US/Decon
Аудио кодек: APE
Тип рипа: image+.cue
Битрейт аудио: lossless
Продолжительность: 49:02
Трэклист:
"Intro"
"I Love This Game" feat. Slim Thug
"Bang the Ball" feat. Rhymefest
"Don't Hate the Player" feat. Hieroglyphics
"Ball Till You Fall" feat. Fabolous
"Champions" feat. Aceyalone & Rakaa of Dilated Peoples
"Baller Blockin'" feat. E-40 & San Quinn
"2K007" feat. Ghostface & A.G. of D.I.T.C.
"Catch Me" feat. Lupe Fiasco & Evidence
"Here Comes the Champ" feat. Mos Def & Anwar Superstar
"Anchor Man" feat. Chali 2na
"Lyrics to Go (Dan the Automator Remix)" feat. A Tribe Called Quest
"Fade Away" feat. Zion I
Доп. информация: Рип с оригинального CD
Незабываем нажимать "СПАСИБО", стимулируйте человека на дальнейшие подвиги
Отчёт EAC
Exact Audio Copy V0.99 prebeta 5 from 4. May 2009
Отчёт EAC об извлечении, выполненном 19. июля 2009, 11:48
Dan The Automator / 2K7
Дисковод: TSSTcorpCDDVDW TS-L633L Adapter: 1 ID: 0
Режим чтения : Достоверность
Использование точного потока : Да
Отключение кэша аудио : Да
Использование указателей C2 : Нет
Коррекция смещения при чтении : 6
Способность читать области Lead-in и Lead-out : Нет
Заполнение пропущенных сэмплов тишиной : Да
Удаление блоков с тишиной в начале и конце : Нет
При вычислениях CRC использовались нулевые сэмплы : Да
Интерфейс : Встроенный Win32-интерфейс для Win NT/2000
Выходной формат : Внутренние WAV-операции
Формат сэмплов : 44.100 Гц; 16 бит; стерео
TOC извлечённого CD
Трек | Старт | Длительность | Начальный сектор | Конечный сектор
---------------------------------------------------------------------
1 | 0:00.00 | 1:00.67 | 0 | 4566
2 | 1:00.67 | 4:04.69 | 4567 | 22935
3 | 5:05.61 | 3:10.25 | 22936 | 37210
4 | 8:16.11 | 4:00.20 | 37211 | 55230
5 | 12:16.31 | 4:40.30 | 55231 | 76260
6 | 16:56.61 | 3:59.02 | 76261 | 94187
7 | 20:55.63 | 3:37.07 | 94188 | 110469
8 | 24:32.70 | 3:48.41 | 110470 | 127610
9 | 28:21.36 | 3:35.48 | 127611 | 143783
10 | 31:57.09 | 4:21.47 | 143784 | 163405
11 | 36:18.56 | 4:20.69 | 163406 | 182974
12 | 40:39.50 | 4:45.05 | 182975 | 204354
13 | 45:24.55 | 3:37.30 | 204355 | 220659
Характеристики диапазона извлечения и сообщения об ошибках
Выбранный диапазон
Имя файла C:\Users\Вова\Documents\Dan The Automator - 2K7.wav
Пиковый уровень 100.0 %
Качество диапазона 100.0 %
CRC копии 9CA4A1E7
Копирование... OK
Ошибок не произошло
AccurateRip: сводка
Трек 1 точное извлечение (доверие 8) [3895CC2F]
Трек 2 точное извлечение (доверие 8) [5352DA53]
Трек 3 точное извлечение (доверие 8) [A3202CB7]
Трек 4 точное извлечение (доверие 8) [E84FE15A]
Трек 5 точное извлечение (доверие 8) [2108C382]
Трек 6 точное извлечение (доверие 8) [7322387E]
Трек 7 точное извлечение (доверие 8) [2629D76B]
Трек 8 точное извлечение (доверие 8) [8368C039]
Трек 9 точное извлечение (доверие 8) [CC4E09AE]
Трек 10 точное извлечение (доверие 8) [78BAA1C0]
Трек 11 точное извлечение (доверие 8) [5DD688B8]
Трек 12 точное извлечение (доверие 8) [3162791D]
Трек 13 точное извлечение (доверие 8) [8FE3B4B4]
Все треки извлечены точно
Конец отчёта
Инфа о альбомчеГе
Few producers have proven so influential on their respective genre as Dan "The Automator" Nakamura has on the underground Hip Hop scene. As the co-creator of concept projects ranging from Dr. Octagon (with Kool Keith) to Handsome Boy Modeling School (with Prince Paul) and the mastermind of the genre-bending Lovage (which paired him with alt-rock icons such as Faith No More's Mike Patton), the Bay Area turntablist has shown an ability to make good artists sound great, and to make great artists sound even better. So in some ways it makes sense that video game developer 2K would hire Nakamura to produce the soundtrack to their latest hoops title.
Of course, making sense and making dollars are two very different things, and Nakamura’s previous projects weren’t exactly known for their commercial sales figures. Perhaps that explains why he’s paired, seemingly incongruously, with several street-friendly emcees here, including Slim Thug (on the weak “I Love This Game,” which is the lyrical equivalent of the Washington Generals trying to hold down the Heat), Fabolous (on “Ball Til You Fall,” which finds him slam-dunking the verses only to throw bricks on the half-assed chorus) and E-40 (who proves an unstoppable lumbering giant like Shaq on “Baller Blockin’,” with San Quinn). Nakamura uses samples of sneaker squeaks, feet pounding on hardwood floors and shot clock buzzers to drive the musical theme home and, if not exactly inventive, the tracks at least tend to enhance their respective emcee’s styles.
But The Automator fares far better when paired with icons from the backpacker scene with which he is most closely associated. The nimble linguistic skills displayed by the Hieroglyphics clique on “Don’t Hate the Player” are the lyrical equivalent of a Harlem Globetrotters show, full of “how’d-he-do-that?!” flash that makes it a welcome return for fans of Bay Area Hip Hop, while Aceyalone and Rakaa of Dilated Peoples make for a fine 2-on-2 combo with the aptly-titled “Champions.” Lupe Fiasco and Evidence of Dilated Peoples prove equally formidable lyrical opponents on “Catch Me,” while Mos Def continues to prove a perennial human highlight reel with the infectious “Here Comes the Champ.”
From Rhymefest (the slammin’ “Bang the Ball”) and Chali 2Na of Jurassic 5 (the fairly pedestrian “Anchor Man”) to A Tribe Called Quest (“Lyrics to Go Remix”), the album has some of the biggest names in commercial and alternative Hip Hop behind it – which makes it all the more disappointing that this All-Star effort seems so lackluster, as if many of the players involved were simply there to collect a paycheck. Still, the ridiculously obvious lyrical and musical metaphors won’t likely matter much when the music is serving its primary purpose—playing in the background as you school your opponents on the virtual court.
[Профиль] [ЛС]
Показать сообщения:    
Ответить на тему

Текущее время: 20-Сен 17:24

Часовой пояс: UTC + 3



Вы не можете начинать темы
Вы не можете отвечать на сообщения
Вы не можете редактировать свои сообщения
Вы не можете удалять свои сообщения
Вы не можете голосовать в опросах
Вы не можете прикреплять файлы к сообщениям
Вы не можете скачивать файлы