Сегодня идет свободное скачивание без начисления Download

(Blues'n'Jazz&Rock'n'Roll) Downchild Blues Band - It's Been So Long / Ready To Go - 1997, FLAC (image+.cue), lossless

Ответить на тему
 
Автор Сообщение

Bot ®

Стаж: 5 лет 8 месяцев

Сообщений: 8

Создавать темы 14-Сен-2018 14:16

[Цитировать]

Downchild Blues Band - It's Been So Long / Ready To Go
Жанр: Blues'n'Jazz&Rock'n'Roll
Год выпуска диска: 1997 [compilation]
Производитель диска: Stony Plain Classic SPCD1242
Аудио кодек: FLAC, image+.cue, lossless
Продолжительность: 70'04''
It's Been So Long
1. Bop 'Til I Drop [3:17]
2. Where Have You Gone [3:28]
3. It's Been So Long [3:25]
4. Who'll Do The Leavin' [4:06]
5. My Baby She's Alright [3:40]
6. Don't Mind Dyin' [4:23]
7. Not This Time [3:08]
8. Bring It On Back [3:08]
9. Off The Cuff [5:35]
Ready To Go
10. One More Chance [2:22]
11. Rock Me Baby [3:39]
12. The Slide [2:55]
13. Do The Parrott [2:41]
14. Lazy Woman [3:13]
15. My Baby [3:25]
16. Caldonia [3:10]
17. My Aching Heart [3:24]
18. Downchild Shuffle [3:51]
19. Heart Fixing Business [3:52]
20. Old Ma Bell [3:12]Source: blues.at.ua -- Author: dmitrych2
Persons
It's Been So Long:
Don Walsh - leader, harmonica, vocals on (7)
Tony Flaim - vocals
Mike McKenna - guitar
Dennis Pinhorn - bass
Paul Nixon, Sonny Bernardi - drums
Pat Carey - saxophones
Bob Heslin - trumpet
Ray Harrison, Gene Taylor - piano
Mike Fonfara - organ
Ready To Go:
Don Walsh - harmonica, guitar, slide guitar
Tony Flaim - vocals
David Woodward - tenor sax
Jane Vasey - piano
Jim Milne - bass
Bill Bryans - drums
auCDtect Task Manager
-----------------------
DON'T MODIFY THIS FILE
-----------------------
PERFORMER: auCDtect Task Manager, ver. 1.0.0 Stable build 1.0.0.0
Copyright (c) 2008, 2009 y-soft. All rights reserved
http://y-soft.110mb.com
ANALYZER: auCDtect: CD records authenticity detector, version 0.8.2
Copyright (c) 2004 Oleg Berngardt. All rights reserved.
Copyright (c) 2004 Alexander Djourik. All rights reserved.
FILE: Downchild Blues Band - It's Been So Long - Ready To Go.flac
Size: 490277298 Hash: 8FD6AAB8CFBA4558C2CB7021378BD968 Accuracy: -m0
Conclusion: CDDA 100%
Signature: 8B4B78569B6D621946FE86CEDD53C6F7C97B2190
Log EAC
Exact Audio Copy V0.99 prebeta 4 from 23. January 2008
Отчёт EAC об извлечении, выполненном 20. июня 2009, 20:17
Downchild Blues Band / It's Been So Long - Ready To Go
Дисковод: PLEXTOR CD-R PX-W5224A Adapter: 0 ID: 1
Режим чтения : Достоверность
Использование точного потока : Да
Отключение кэша аудио : Да
Использование указателей C2 : Нет
Коррекция смещения при чтении : 30
Способность читать области Lead-in и Lead-out : Нет
Заполнение пропущенных сэмплов тишиной : Да
Удаление блоков с тишиной в начале и конце : Нет
При вычислениях CRC использовались нулевые сэмплы : Да
Интерфейс : Установленный внешний ASPI-интерфейс
Выходной формат : Пользовательский кодировщик
Выбранный битрейт : 768 kBit/s
Качество : Высокий
Добавление ID3-тэга : Нет
Утилита сжатия : C:\Program Files\Exact Audio Copy\FLAC\FLAC.EXE
Дополнительные параметры : -6 -V -T "ARTIST=%a" -T "TITLE=%t" -T "ALBUM=%g" -T "DATE=%y" -T "TRACKNUMBER=%n" -T "GENRE=%m" -T "COMMENT=%e" %s -o %d
TOC извлечённого CD
Трек | Старт | Длительность | Начальный сектор | Конечный сектор
---------------------------------------------------------------------
1 | 0:00.00 | 3:17.45 | 0 | 14819
2 | 3:17.45 | 3:37.30 | 14820 | 31124
3 | 6:55.00 | 3:25.72 | 31125 | 46571
4 | 10:20.72 | 4:05.25 | 46572 | 64971
5 | 14:26.22 | 3:40.43 | 64972 | 81514
6 | 18:06.65 | 4:22.67 | 81515 | 101231
7 | 22:29.57 | 3:07.55 | 101232 | 115311
8 | 25:37.37 | 3:07.58 | 115312 | 129394
9 | 28:45.20 | 5:35.35 | 129395 | 154554
10 | 34:20.55 | 2:21.45 | 154555 | 165174
11 | 36:42.25 | 3:39.42 | 165175 | 181641
12 | 40:21.67 | 2:54.38 | 181642 | 194729
13 | 43:16.30 | 2:41.25 | 194730 | 206829
14 | 45:57.55 | 3:12.32 | 206830 | 221261
15 | 49:10.12 | 3:24.63 | 221262 | 236624
16 | 52:35.00 | 3:10.02 | 236625 | 250876
17 | 55:45.02 | 3:24.65 | 250877 | 266241
18 | 59:09.67 | 3:50.15 | 266242 | 283506
19 | 63:00.07 | 3:52.55 | 283507 | 300961
20 | 66:52.62 | 3:11.48 | 300962 | 315334
Характеристики диапазона извлечения и сообщения об ошибках
Выбранный диапазон
Имя файла D:\My MusicLarry\Downchild Blues Band_flac\Downchild Blues Band.wav
Пиковый уровень 99.9 %
Качество диапазона 100.0 %
CRC копии 6D25CBFA
Копирование... OK
Ошибок не произошло
Конец отчёта
[Профиль] [ЛС]
Показать сообщения:    
Ответить на тему

Текущее время: 20-Ноя 21:09

Часовой пояс: UTC + 3



Вы не можете начинать темы
Вы не можете отвечать на сообщения
Вы не можете редактировать свои сообщения
Вы не можете удалять свои сообщения
Вы не можете голосовать в опросах
Вы не можете прикреплять файлы к сообщениям
Вы не можете скачивать файлы