Сегодня идет свободное скачивание без начисления Download

(Grindcore/Mince Core) Agathocles - Razor Sharp Daggers - 1995, FLAC (tracks+.cue), lossless

Ответить на тему
 
Автор Сообщение

Bot ®

Стаж: 2 года

Сообщений: 11

Создавать темы 14-Сен-2018 14:31

[Цитировать]

Agathocles - Razor Sharp Daggers (1995)-
Жанр: Grindcore/Mince Core
Год выпуска диска: 1995
Производитель диска: Cyber Music, Belgium
Аудио кодек: FLAC
Тип рипа: tracks+.cue
Битрейт аудио: lossless
Продолжительность: 01:15:18
Трэклист:
01. A Start at Least 02:01
02. Clean the Scene 01:01
03. A for Arrogance 02:23
04. Thy Kingdom Won't Come 00:37
05. Media Creations 01:01
06. All Gone 02:10
07. Swallow or Choke 00:48
08. Razor Sharp Daggers 00:49
09. Enough 02:12
10. Throwing Away Crap 01:38
11. Cracking Up Solidarity 00:40
12. Lunatic 04:46
13. Didn't Ask 00:35
14. Twisting History 00:54
15. Deserves to Die 02:16
16. Age of the Mutans 00:59
17. Zero - Ego 01:47
18. Gear-Wheels 00:45
19. Dear Friends 02:17
20. Hormon Mob 00:41
21. Hash-Head, Farmers' Death 00:45
22. Dare to Be Aware 01:48
23. Kiss an Ass 02:40
24. All Love Dead 00:36
25. Fear Not 04:42
26. Sieg Shit 03:12
27. Hatronomous 00:22
28. Hideous Headchopping 00:35
29. Bigheaded Bastards 02:24
30. Get Off Your Ass 01:12
31. Distrust and Abuse 01:15
32. Hippie Cult 01:01
33. Provoked Behaviour 02:36
34. Black Ones (Poem) / Systemophobic 02:14
35. Anthropodislogical 01:51
36. Labelisation 02:02
37. What Mankind Creates 01:25
38. No! 00:32
39. Rejected Adaptation 02:06
40. An Abstract 02:40
41. Faded Novelty 01:51
42. Senseless Trip 02:37
43. Here and Now 02:14
44. Is It Really Mine? 02:09
EAC log
Exact Audio Copy V0.99 prebeta 4 from 23. January 2008
EAC extraction logfile from 13. May 2009, 10:19
Agathocles / Razor Sharp Daggers
Used drive : HL-DT-STDVD-ROM GDR8163B Adapter: 1 ID: 1
Read mode : Secure
Utilize accurate stream : Yes
Defeat audio cache : Yes
Make use of C2 pointers : No
Read offset correction : 102
Overread into Lead-In and Lead-Out : No
Fill up missing offset samples with silence : Yes
Delete leading and trailing silent blocks : No
Null samples used in CRC calculations : Yes
Used interface : Installed external ASPI interface
Gap handling : Appended to previous track
Used output format : User Defined Encoder
Selected bitrate : 192 kBit/s
Quality : High
Add ID3 tag : No
Command line compressor : C:\Archivos de programa\Exact Audio Copy\Flac\flac.exe
Additional command line options : -8 -T "artist=%a" -T "title=%t" -T "album=%g" -T "date=%y" -T "tracknumber=%n" -T "genre=%m" %s
TOC of the extracted CD
Track | Start | Length | Start sector | End sector
---------------------------------------------------------
1 | 0:00.00 | 2:01.58 | 0 | 9132
2 | 2:01.58 | 1:00.72 | 9133 | 13704
3 | 3:02.55 | 2:31.20 | 13705 | 25049
4 | 5:34.00 | 0:37.00 | 25050 | 27824
5 | 6:11.00 | 1:01.25 | 27825 | 32424
6 | 7:12.25 | 2:10.48 | 32425 | 42222
7 | 9:22.73 | 0:47.20 | 42223 | 45767
8 | 10:10.18 | 0:49.00 | 45768 | 49442
9 | 10:59.18 | 2:11.70 | 49443 | 59337
10 | 13:11.13 | 1:38.02 | 59338 | 66689
11 | 14:49.15 | 0:40.55 | 66690 | 69744
12 | 15:29.70 | 4:45.25 | 69745 | 91144
13 | 20:15.20 | 0:35.15 | 91145 | 93784
14 | 20:50.35 | 0:54.30 | 93785 | 97864
15 | 21:44.65 | 2:15.23 | 97865 | 108012
16 | 24:00.13 | 0:59.27 | 108013 | 112464
17 | 24:59.40 | 1:47.15 | 112465 | 120504
18 | 26:46.55 | 0:44.73 | 120505 | 123877
19 | 27:31.53 | 2:16.72 | 123878 | 134149
20 | 29:48.50 | 0:40.33 | 134150 | 137182
21 | 30:29.08 | 0:45.37 | 137183 | 140594
22 | 31:14.45 | 1:48.05 | 140595 | 148699
23 | 33:02.50 | 2:39.58 | 148700 | 160682
24 | 35:42.33 | 0:36.22 | 160683 | 163404
25 | 36:18.55 | 4:41.60 | 163405 | 184539
26 | 41:00.40 | 3:12.00 | 184540 | 198939
27 | 44:12.40 | 0:21.45 | 198940 | 200559
28 | 44:34.10 | 0:35.48 | 200560 | 203232
29 | 45:09.58 | 2:24.10 | 203233 | 214042
30 | 47:33.68 | 1:11.62 | 214043 | 219429
31 | 48:45.55 | 1:14.25 | 219430 | 225004
32 | 50:00.05 | 1:00.73 | 225005 | 229577
33 | 51:01.03 | 2:36.02 | 229578 | 241279
34 | 53:37.05 | 2:14.18 | 241280 | 251347
35 | 55:51.23 | 1:50.62 | 251348 | 259659
36 | 57:42.10 | 2:02.03 | 259660 | 268812
37 | 59:44.13 | 1:25.50 | 268813 | 275237
38 | 61:09.63 | 0:31.62 | 275238 | 277624
39 | 61:41.50 | 2:05.50 | 277625 | 287049
40 | 63:47.25 | 2:40.45 | 287050 | 299094
41 | 66:27.70 | 1:51.00 | 299095 | 307419
42 | 68:18.70 | 2:36.68 | 307420 | 319187
43 | 70:55.63 | 2:13.45 | 319188 | 329207
44 | 73:09.33 | 2:08.42 | 329208 | 338849
Track 1
Filename C:\Exact Audio Copy\Agathocles - Razor Sharp Daggers (1995)\01 - A Start At Least.wav
Pre-gap length 0:00:02.00
Peak level 86.2 %
Track quality 100.0 %
Test CRC C40563D0
Copy CRC C40563D0
Copy OK
Track 2
Filename C:\Exact Audio Copy\Agathocles - Razor Sharp Daggers (1995)\02 - Clean the Scene.wav
Pre-gap length 0:00:02.51
Peak level 90.7 %
Track quality 100.0 %
Test CRC E8DB0688
Copy CRC E8DB0688
Copy OK
Track 3
Filename C:\Exact Audio Copy\Agathocles - Razor Sharp Daggers (1995)\03 - A For Arrogance.wav
Pre-gap length 0:00:02.45
Peak level 91.0 %
Track quality 100.0 %
Test CRC 7D801507
Copy CRC 7D801507
Copy OK
Track 4
Filename C:\Exact Audio Copy\Agathocles - Razor Sharp Daggers (1995)\04 - Thy Kingdom Won't Come.wav
Pre-gap length 0:00:02.47
Peak level 83.9 %
Track quality 100.0 %
Test CRC A307CB0E
Copy CRC A307CB0E
Copy OK
Track 5
Filename C:\Exact Audio Copy\Agathocles - Razor Sharp Daggers (1995)\05 - Media Creations.wav
Pre-gap length 0:00:01.42
Peak level 84.8 %
Track quality 100.0 %
Test CRC DF1AB979
Copy CRC DF1AB979
Copy OK
Track 6
Filename C:\Exact Audio Copy\Agathocles - Razor Sharp Daggers (1995)\06 - All Gone.wav
Pre-gap length 0:00:02.12
Peak level 88.7 %
Track quality 100.0 %
Test CRC F23E9F94
Copy CRC F23E9F94
Copy OK
Track 7
Filename C:\Exact Audio Copy\Agathocles - Razor Sharp Daggers (1995)\07 - Swallow or Choke.wav
Pre-gap length 0:00:02.43
Peak level 85.3 %
Track quality 100.0 %
Test CRC B04D1BDE
Copy CRC B04D1BDE
Copy OK
Track 8
Filename C:\Exact Audio Copy\Agathocles - Razor Sharp Daggers (1995)\08 - Razor Sharp Daggers.wav
Pre-gap length 0:00:02.48
Peak level 85.5 %
Track quality 100.0 %
Test CRC ECC93B43
Copy CRC ECC93B43
Copy OK
Track 9
Filename C:\Exact Audio Copy\Agathocles - Razor Sharp Daggers (1995)\09 - Enough.wav
Pre-gap length 0:00:02.48
Peak level 86.9 %
Track quality 100.0 %
Test CRC 28FB7C02
Copy CRC 28FB7C02
Copy OK
Track 10
Filename C:\Exact Audio Copy\Agathocles - Razor Sharp Daggers (1995)\10 - Throwing Away Crap.wav
Pre-gap length 0:00:02.38
Peak level 89.1 %
Track quality 100.0 %
Test CRC 6AA2A9CB
Copy CRC 6AA2A9CB
Copy OK
Track 11
Filename C:\Exact Audio Copy\Agathocles - Razor Sharp Daggers (1995)\11 - Cracking Up Solidarity.wav
Pre-gap length 0:00:01.42
Peak level 85.1 %
Track quality 100.0 %
Test CRC A7AEC322
Copy CRC A7AEC322
Copy OK
Track 12
Filename C:\Exact Audio Copy\Agathocles - Razor Sharp Daggers (1995)\12 - Lunatic.wav
Pre-gap length 0:00:02.10
Peak level 88.7 %
Track quality 100.0 %
Test CRC 0286C537
Copy CRC 0286C537
Copy OK
Track 13
Filename C:\Exact Audio Copy\Agathocles - Razor Sharp Daggers (1995)\13 - Didn't Ask.wav
Pre-gap length 0:00:02.20
Peak level 83.9 %
Track quality 99.6 %
Test CRC 3159E502
Copy CRC 3159E502
Copy OK
Track 14
Filename C:\Exact Audio Copy\Agathocles - Razor Sharp Daggers (1995)\14 - Twisting History.wav
Pre-gap length 0:00:02.32
Peak level 90.9 %
Track quality 100.0 %
Test CRC E5AA0617
Copy CRC E5AA0617
Copy OK
Track 15
Filename C:\Exact Audio Copy\Agathocles - Razor Sharp Daggers (1995)\15 - Deserves To Die.wav
Pre-gap length 0:00:02.12
Peak level 84.1 %
Track quality 100.0 %
Test CRC 9794DADF
Copy CRC 9794DADF
Copy OK
Track 16
Filename C:\Exact Audio Copy\Agathocles - Razor Sharp Daggers (1995)\16 - Age of the Mutans.wav
Pre-gap length 0:00:02.20
Peak level 85.0 %
Track quality 100.0 %
Test CRC 06FF9FEC
Copy CRC 06FF9FEC
Copy OK
Track 17
Filename C:\Exact Audio Copy\Agathocles - Razor Sharp Daggers (1995)\17 - Zero - Ego.wav
Pre-gap length 0:00:02.32
Peak level 89.8 %
Track quality 100.0 %
Test CRC 94BC6E50
Copy CRC 94BC6E50
Copy OK
Track 18
Filename C:\Exact Audio Copy\Agathocles - Razor Sharp Daggers (1995)\18 - Gear-Wheels.wav
Pre-gap length 0:00:02.05
Peak level 87.6 %
Track quality 100.0 %
Test CRC C6822D35
Copy CRC C6822D35
Copy OK
Track 19
Filename C:\Exact Audio Copy\Agathocles - Razor Sharp Daggers (1995)\19 - Dear Friends.wav
Pre-gap length 0:00:02.33
Peak level 86.9 %
Track quality 100.0 %
Test CRC C9754881
Copy CRC C9754881
Copy OK
Track 20
Filename C:\Exact Audio Copy\Agathocles - Razor Sharp Daggers (1995)\20 - Hormon Mob.wav
Pre-gap length 0:00:02.40
Peak level 80.8 %
Track quality 100.0 %
Test CRC 4D4D11C3
Copy CRC 4D4D11C3
Copy OK
Track 21
Filename C:\Exact Audio Copy\Agathocles - Razor Sharp Daggers (1995)\21 - Hash-Head, Farmers' Death.wav
Pre-gap length 0:00:02.45
Peak level 82.6 %
Track quality 99.7 %
Test CRC FB71C42C
Copy CRC FB71C42C
Copy OK
Track 22
Filename C:\Exact Audio Copy\Agathocles - Razor Sharp Daggers (1995)\22 - Dare to be Aware.wav
Pre-gap length 0:00:02.22
Peak level 83.9 %
Track quality 100.0 %
Test CRC 66D1D1CE
Copy CRC 66D1D1CE
Copy OK
Track 23
Filename C:\Exact Audio Copy\Agathocles - Razor Sharp Daggers (1995)\23 - Kiss My Ass.wav
Pre-gap length 0:00:02.52
Peak level 93.2 %
Track quality 100.0 %
Test CRC 2D23C6F0
Copy CRC 2D23C6F0
Copy OK
Track 24
Filename C:\Exact Audio Copy\Agathocles - Razor Sharp Daggers (1995)\24 - All Love Dead.wav
Pre-gap length 0:00:02.28
Peak level 88.6 %
Track quality 100.0 %
Test CRC BD11D137
Copy CRC BD11D137
Copy OK
Track 25
Filename C:\Exact Audio Copy\Agathocles - Razor Sharp Daggers (1995)\25 - Fear Not.wav
Pre-gap length 0:00:02.45
Peak level 94.7 %
Track quality 100.0 %
Test CRC 7E58ADB6
Copy CRC 7E58ADB6
Copy OK
Track 26
Filename C:\Exact Audio Copy\Agathocles - Razor Sharp Daggers (1995)\26 - Sieg Shit.wav
Pre-gap length 0:00:02.40
Peak level 89.4 %
Track quality 100.0 %
Test CRC CFB97666
Copy CRC CFB97666
Copy OK
Track 27
Filename C:\Exact Audio Copy\Agathocles - Razor Sharp Daggers (1995)\27 - Hatronomous.wav
Pre-gap length 0:00:02.40
Peak level 85.2 %
Track quality 100.0 %
Test CRC E6F02306
Copy CRC E6F02306
Copy OK
Track 28
Filename C:\Exact Audio Copy\Agathocles - Razor Sharp Daggers (1995)\28 - Hideous Headchopping.wav
Pre-gap length 0:00:02.17
Peak level 80.4 %
Track quality 100.0 %
Test CRC 39CC8C1E
Copy CRC 39CC8C1E
Copy OK
Track 29
Filename C:\Exact Audio Copy\Agathocles - Razor Sharp Daggers (1995)\29 - Bigheaded Bastards.wav
Pre-gap length 0:00:02.00
Peak level 93.8 %
Track quality 99.9 %
Test CRC DE194CF1
Copy CRC DE194CF1
Copy OK
Track 30
Filename C:\Exact Audio Copy\Agathocles - Razor Sharp Daggers (1995)\30 - Get Of Your Ass.wav
Pre-gap length 0:00:02.43
Peak level 88.6 %
Track quality 100.0 %
Test CRC C1160D72
Copy CRC C1160D72
Copy OK
Track 31
Filename C:\Exact Audio Copy\Agathocles - Razor Sharp Daggers (1995)\31 - Distrust and Abuse.wav
Pre-gap length 0:00:02.05
Peak level 92.8 %
Track quality 100.0 %
Test CRC AE20410A
Copy CRC AE20410A
Copy OK
Track 32
Filename C:\Exact Audio Copy\Agathocles - Razor Sharp Daggers (1995)\32 - Hippie Cult.wav
Pre-gap length 0:00:02.45
Peak level 83.5 %
Track quality 100.0 %
Test CRC 399E1227
Copy CRC 399E1227
Copy OK
Track 33
Filename C:\Exact Audio Copy\Agathocles - Razor Sharp Daggers (1995)\33 - Provoked Behaviour.wav
Pre-gap length 0:00:02.25
Peak level 88.4 %
Track quality 100.0 %
Test CRC 29F9F3AA
Copy CRC 29F9F3AA
Copy OK
Track 34
Filename C:\Exact Audio Copy\Agathocles - Razor Sharp Daggers (1995)\34 - Black Ones (Poem) , Systemphobic.wav
Pre-gap length 0:00:01.65
Peak level 80.8 %
Track quality 100.0 %
Test CRC BB3368C5
Copy CRC BB3368C5
Copy OK
Track 35
Filename C:\Exact Audio Copy\Agathocles - Razor Sharp Daggers (1995)\35 - Anthropodislogical.wav
Pre-gap length 0:00:02.15
Peak level 80.5 %
Track quality 100.0 %
Test CRC AE0CC726
Copy CRC AE0CC726
Copy OK
Track 36
Filename C:\Exact Audio Copy\Agathocles - Razor Sharp Daggers (1995)\36 - Labelisation.wav
Pre-gap length 0:00:02.07
Peak level 77.2 %
Track quality 100.0 %
Test CRC BC73BCF0
Copy CRC BC73BCF0
Copy OK
Track 37
Filename C:\Exact Audio Copy\Agathocles - Razor Sharp Daggers (1995)\37 - What Mankind Creates.wav
Pre-gap length 0:00:02.25
Peak level 80.2 %
Track quality 99.8 %
Test CRC 2B5E4E45
Copy CRC 2B5E4E45
Copy OK
Track 38
Filename C:\Exact Audio Copy\Agathocles - Razor Sharp Daggers (1995)\38 - No !.wav
Pre-gap length 0:00:02.28
Peak level 80.4 %
Track quality 100.0 %
Test CRC A178CE8B
Copy CRC A178CE8B
Copy OK
Track 39
Filename C:\Exact Audio Copy\Agathocles - Razor Sharp Daggers (1995)\39 - Rejected Adaption.wav
Pre-gap length 0:00:02.20
Peak level 79.7 %
Track quality 100.0 %
Test CRC F77AEE0F
Copy CRC F77AEE0F
Copy OK
Track 40
Filename C:\Exact Audio Copy\Agathocles - Razor Sharp Daggers (1995)\40 - An Abstract.wav
Pre-gap length 0:00:02.55
Peak level 81.2 %
Track quality 100.0 %
Test CRC 3DE5FB9A
Copy CRC 3DE5FB9A
Copy OK
Track 41
Filename C:\Exact Audio Copy\Agathocles - Razor Sharp Daggers (1995)\41 - Faded Novelty.wav
Pre-gap length 0:00:02.50
Peak level 80.7 %
Track quality 100.0 %
Test CRC 4C01E3B5
Copy CRC 4C01E3B5
Copy OK
Track 42
Filename C:\Exact Audio Copy\Agathocles - Razor Sharp Daggers (1995)\42 - Senseless Trip.wav
Pre-gap length 0:00:02.12
Peak level 88.8 %
Track quality 100.0 %
Test CRC 7810101A
Copy CRC 7810101A
Copy OK
Track 43
Filename C:\Exact Audio Copy\Agathocles - Razor Sharp Daggers (1995)\43 - Here and Now.wav
Pre-gap length 0:00:01.73
Peak level 81.4 %
Track quality 100.0 %
Test CRC CB1B18FA
Copy CRC CB1B18FA
Copy OK
Track 44
Filename C:\Exact Audio Copy\Agathocles - Razor Sharp Daggers (1995)\44 - Is It Really Mine .wav
Pre-gap length 0:00:02.10
Peak level 90.2 %
Track quality 100.0 %
Test CRC 979C49B0
Copy CRC 979C49B0
Copy OK
No errors occurred
End of status report
[Профиль] [ЛС]
Показать сообщения:    
Ответить на тему

Текущее время: 20-Сен 17:24

Часовой пояс: UTC + 3



Вы не можете начинать темы
Вы не можете отвечать на сообщения
Вы не можете редактировать свои сообщения
Вы не можете удалять свои сообщения
Вы не можете голосовать в опросах
Вы не можете прикреплять файлы к сообщениям
Вы не можете скачивать файлы