Сегодня идет свободное скачивание без начисления Download

(Tribal, Ambient) VA - Twilight Earth - International Soirée [Timebase] (Soiree) - 1994, FLAC (image+.cue), lossless

Ответить на тему
 
Автор Сообщение

Bot ®

Стаж: 2 года 9 месяцев

Сообщений: 6

Создавать темы 14-Сен-2018 14:31

[Цитировать]

Various - Twilight Earth - International Soirée
Жанр: Tribal, Ambient
Год выпуска диска: 1994
Производитель диска: Germany; Timebase
Аудио кодек: FLAC
Тип рипа: image+.cue
Битрейт аудио: lossless
Продолжительность: 1:15:25
Трэклист:
01 O Yuki Conjugate - Insect-Talk (Dry) (6:11)
02 Vidna Obmana - The Embrace In Motion (5:46)
03 Steve Roach - Before The Sacrifice (6:51)
04 Jorge Reyes - Espejo Humeante (5:34)
05 Hybryds - Orca (Remix) (4:42)
06 Temps Perdu? - Rano Rarako (5:43)
07 Dino Oon & Konrad Kraft - The Garden Of Friction II (5:23)
08 Voice Of Eye - Vas Tremens (5:52)
09 Jeff Greinke - Ancestral Horizon (6:03)
10 Alio Die - The Flight Of Real Image (6:26)
11 Paul Schütze - All That Was Solid... (6:37)
12 Human Flesh - Paysage Marin Avec Oiseaux (Et Bateau À Moteur) (3:04)
13 Tuu - One Thousand Years (Vasel Shevchenko Version) (7:07)
Доп. информация: +СКАНЫ 300 DPI
Отчет EAC
Exact Audio Copy V0.99 prebeta 4 from 23. January 2008
EAC extraction logfile from 21. March 2009, 0:04
Various / Twilight Earth International Soiree
Used drive : PIONEER DVD-RW DVR-111 Adapter: 3 ID: 0
Read mode : Secure
Utilize accurate stream : Yes
Defeat audio cache : Yes
Make use of C2 pointers : No
Read offset correction : 48
Overread into Lead-In and Lead-Out : No
Fill up missing offset samples with silence : Yes
Delete leading and trailing silent blocks : No
Null samples used in CRC calculations : Yes
Used interface : Installed external ASPI interface
Used output format : User Defined Encoder
Selected bitrate : 1024 kBit/s
Quality : High
Add ID3 tag : No
Command line compressor : C:\Program Files\Exact Audio Copy\Flac\flac.exe
Additional command line options : -8 -V -T "ARTIST=%a" -T "ALBUM=%g" -T "DATE=%y" -T "GENRE=%m" %s -o %d
TOC of the extracted CD
Track | Start | Length | Start sector | End sector
---------------------------------------------------------
1 | 0:00.00 | 6:11.28 | 0 | 27852
2 | 6:11.28 | 5:46.72 | 27853 | 53874
3 | 11:58.25 | 6:51.03 | 53875 | 84702
4 | 18:49.28 | 5:34.55 | 84703 | 109807
5 | 24:24.08 | 4:42.25 | 109808 | 130982
6 | 29:06.33 | 5:43.65 | 130983 | 156772
7 | 34:50.23 | 5:23.40 | 156773 | 181037
8 | 40:13.63 | 5:52.35 | 181038 | 207472
9 | 46:06.23 | 6:03.02 | 207473 | 234699
10 | 52:09.25 | 6:26.23 | 234700 | 263672
11 | 58:35.48 | 6:37.52 | 263673 | 293499
12 | 65:13.25 | 3:04.00 | 293500 | 307299
13 | 68:17.25 | 7:07.63 | 307300 | 339387
Range status and errors
Selected range
Filename F:\temp\nnm\Various - Twilight Earth International Soiree.wav
Peak level 100.0 %
Range quality 100.0 %
Test CRC AACCE9A3
Copy CRC AACCE9A3
Copy OK
No errors occurred
AccurateRip summary
Track 1 accurately ripped (confidence 4) [DB819B22]
Track 2 accurately ripped (confidence 4) [3AA7AC85]
Track 3 accurately ripped (confidence 4) [3755E8EC]
Track 4 accurately ripped (confidence 4) [DFAB8F3E]
Track 5 accurately ripped (confidence 4) [E28CD763]
Track 6 accurately ripped (confidence 4) [0AA88FA0]
Track 7 accurately ripped (confidence 4) [046D0A7A]
Track 8 accurately ripped (confidence 3) [AAE365E2]
Track 9 accurately ripped (confidence 3) [771E8439]
Track 10 accurately ripped (confidence 4) [158E5B1A]
Track 11 accurately ripped (confidence 4) [56490B8C]
Track 12 accurately ripped (confidence 4) [8D68E60A]
Track 13 accurately ripped (confidence 3) [07EFBD0B]
All tracks accurately ripped
End of status report
[Профиль] [ЛС]
Показать сообщения:    
Ответить на тему

Текущее время: 20-Ноя 20:36

Часовой пояс: UTC + 3



Вы не можете начинать темы
Вы не можете отвечать на сообщения
Вы не можете редактировать свои сообщения
Вы не можете удалять свои сообщения
Вы не можете голосовать в опросах
Вы не можете прикреплять файлы к сообщениям
Вы не можете скачивать файлы