Сегодня идет свободное скачивание без начисления Download

Клинок Бессмертного / Mugen no junin / Blade of the Immortal (2017) HDRip [AVO]

Ответить на тему
 
Автор Сообщение

Bot ®

Стаж: 2 года 9 месяцев

Сообщений: 11

Создавать темы 11-Окт-2018 15:47

[Цитировать]

Клинок Бессмертного / Mugen no junin / Blade of the Immortal (2017) HDRip - Производство: Япония, Великобритания, Warner Bros., Oriental Light and Magic , Recorded Picture Company
Жанр: Драма, Боевик
Режиссер: Такаси Миике
Актеры: Такуя Кимура, Хана Сугисаки, Сота Фукуси, Хаято Итихара, Эрика Тода, Казуки Китамура, Тиаки Курияма, Синносукэ Мицусима, Кэн Канэко, Ёко Ямамото
Описание:
Самурай Мандзи случайно убил мужа сестры, после чего та немного подвинулась умом. Больше у девушки никого на свете нет, поэтому старший брат живёт только для того, чтобы её защищать. Однажды злодеи убивают сестру и калечат Мандзи, который желает лишь одного — смерти, но рядом вдруг оказывается странная старушка. Она заражает самурая кровяными червями — загадочными паразитами, которые делают своего носителя бессмертным, затягивая раны и восстанавливая отрубленные конечности. 80 лет спустя та же старушка направляет к самураю девушку, желающую отомстить за смерть отца. Девушку, как две капли воды похожую на покойную сестру Мандзи.

Рейтинг MPAA: R (лицам до 17 лет обязательно присутствие взрослого)
Премьера (мир): Япония - 29 апреля 2017, Великобритания - 8 декабря 2017
Релиз от: ExKinoRay
Продолжительность: 02:20:58
Качество видео: HDRip
Перевод: Авторский одноголосый закадровый, А.Важенин (BadBajo)
Субтитры: Английские (отключаемые)
Видео: Xvid, 720x304, ~1276 Kbps
Аудио: AC3, 6 ch, 192 Kbps
Mediainfo:
Общее
Полное имя : D:\Видео\torrrent\Blade.of.the.Immortal.2017.AVO.BadBajo.HDRip.ExKinoRay.avi
Формат : AVI
Формат/Информация : Audio Video Interleave
Размер файла : 1,45 Гбайт
Продолжительность : 2 ч. 20 м.
Общий поток : 1477 Кбит/сек
Программа кодирования : VirtualDubMod 1.5.10.3 (build 2550/release)
Библиотека кодирования : VirtualDubMod build 2550/release
Авторское право : ExKinoRay
Видео
Идентификатор : 0
Формат : MPEG-4 Visual
Профиль формата : Advanced Simple@L5
Параметр BVOP формата : 1
Параметр QPel формата : Нет
Параметр GMC формата : Без точки перехода
Параметр матрицы формата : Выборочная
Идентификатор кодека : XVID
Идентификатор кодека/Подсказка : XviD
Продолжительность : 2 ч. 20 м.
Битрейт : 1276 Кбит/сек
Ширина : 720 пикселей
Высота : 304 пикселя
Соотношение сторон : 2,35:1
Частота кадров : 23,976 (24000/1001) кадра/сек
Частота кадров в оригинале : 23,976 (23976/1000) кадра/сек
Цветовое пространство : YUV
Субдискретизация насыщенности : 4:2:0
Битовая глубина : 8 бит
Тип развёртки : Прогрессивная
Метод сжатия : С потерями
Бит/(Пиксели*Кадры) : 0.243
Размер потока : 1,26 Гбайт (86%)
Библиотека кодирования : XviD 73
Аудио
Идентификатор : 1
Формат : AC-3
Формат/Информация : Audio Coding 3
Параметр Endianness формата : Big
Идентификатор кодека : 2000
Продолжительность : 2 ч. 20 м.
Вид битрейта : Постоянный
Битрейт : 192 Кбит/сек
Каналы : 6 каналов
Расположение каналов : Front: L C R, Side: L R, LFE
Частота : 48,0 КГц
Частота кадров : 31,250 кадров/сек (1536 SPF)
Битовая глубина : 16 бит
Метод сжатия : С потерями
Размер потока : 194 Мбайт (13%)
Выравнивание : Разделение по промежуткам
Продолжительность промежутка : 42 мс. (1,00 видеокадр)
Время предзагрузки промежутка : 500 мс.
Заголовок : AVO (BadBajo)
ServiceKind/String : Complete Main
Скриншоты:
Все одноименные релизы в КлубеВремя раздачи: 24/7 (до появления первых 3-5 скачавших)
[Профиль] [ЛС]
Показать сообщения:    
Ответить на тему

Текущее время: 18-Окт 15:42

Часовой пояс: UTC + 3



Вы не можете начинать темы
Вы не можете отвечать на сообщения
Вы не можете редактировать свои сообщения
Вы не можете удалять свои сообщения
Вы не можете голосовать в опросах
Вы не можете прикреплять файлы к сообщениям
Вы не можете скачивать файлы