Сегодня идет свободное скачивание без начисления Download

Далеко в горах (1958) VHSRip

Ответить на тему
 
Автор Сообщение

Bot ®

Стаж: 3 года 6 месяцев

Сообщений: 10

Создавать темы 11-Окт-2018 15:47

[Цитировать]

Далеко в горах (1958) VHSRip - Производство: СССР, Фрунзенская и Алма-Атинская киностудии
Жанр: Приключения
Режиссер: Александр Карпов
Актеры: Асанбек Умуралиев, Джамал Сейдакматова, Муратбек Рыскулов, М. Бахтыгереев, Аширалы Боталиев, Кемель Албанов, З. Кыдралин, А. Исабеков, З. Каракеева, К. Жаркимбаев, М. Сыздыков, С. Жаманов
Описание:
Противоречивые вести о приходе новой власти приносят в аил бая Сарыгула посланец Советов большевик Искандер и бежавший от большевиков бек Мады. Осторожный, расчётливый бай Сарыгул, стремясь сохранить власть и богатство, пытается щедростью и справедливостью задобрить бедноту. Молодой табунщик Назаркул, доверившись баю, становится орудием в его руках. Обманутый Назаркул теряет друзей, мать, любимую девушку.

Релиз от: kolman67
Продолжительность: 01:19:52
Качество видео: VHSRip
Видео: Xvid, 704x528, ~2010 Kbps
Аудио: MP2, 2 ch, 128 Kbps
Mediainfo:
Общее
Полное имя : Далеко в горах (1958).avi
Формат : AVI
Формат/Информация : Audio Video Interleave
Профиль формата : OpenDML
Размер файла : 1,20 Гбайт
Продолжительность : 1 ч. 19 м.
Общий поток : 2152 Кбит/сек
Программа кодирования : Lavf57.71.100
Видео
Идентификатор : 0
Формат : MPEG-4 Visual
Профиль формата : Advanced Simple@L5
Настройки формата : BVOP3
Параметр BVOP формата : 3
Параметр QPel формата : Нет
Параметр GMC формата : Без точки перехода
Параметр матрицы формата : Default (H.263)
Идентификатор кодека : XVID
Идентификатор кодека/Подсказка : XviD
Продолжительность : 1 ч. 19 м.
Битрейт : 2008 Кбит/сек
Ширина : 704 пикселя
Высота : 528 пикселей
Соотношение сторон : 4:3
Частота кадров : 29,970 (30000/1001) кадров/сек
Цветовое пространство : YUV
Субдискретизация насыщенности : 4:2:0
Битовая глубина : 8 бит
Тип развёртки : Прогрессивная
Метод сжатия : С потерями
Бит/(Пиксели*Кадры) : 0.180
Размер потока : 1,12 Гбайт (93%)
Библиотека кодирования : XviD 67
Аудио
Идентификатор : 1
Формат : MPEG Audio
Версия формата : Version 1
Профиль формата : Layer 2
Идентификатор кодека : 50
Продолжительность : 1 ч. 19 м.
Вид битрейта : Постоянный
Битрейт : 128 Кбит/сек
Каналы : 2 канала
Частота : 44,1 КГц
Метод сжатия : С потерями
Размер потока : 73,0 Мбайт (6%)
Выравнивание : Соединение по промежуткам
Продолжительность промежутка : 26 мс. (0,78 видеокадр)
Скриншоты:
Все одноимённые релизы в КлубеВремя раздачи: 24/7 (круглосуточно) (до появления первых 3-5 скачавших)
[Профиль] [ЛС]
Показать сообщения:    
Ответить на тему

Текущее время: 22-Окт 18:32

Часовой пояс: UTC + 3



Вы не можете начинать темы
Вы не можете отвечать на сообщения
Вы не можете редактировать свои сообщения
Вы не можете удалять свои сообщения
Вы не можете голосовать в опросах
Вы не можете прикреплять файлы к сообщениям
Вы не можете скачивать файлы