Сегодня идет свободное скачивание без начисления Download

Клинок Бессмертного / Mugen no junin / Blade of the Immortal (2017) BDRemux [H.264/1080p] [AVO]

Ответить на тему
 
Автор Сообщение

Bot ®

Стаж: 2 года 3 месяца

Сообщений: 7

Создавать темы 11-Окт-2018 16:17

[Цитировать]

Клинок Бессмертного / Mugen no junin / Blade of the Immortal (2017) BDRemux [H.264/1080p] [AVO] - Производство: Япония, Великобритания, Warner Bros., Oriental Light and Magic , Recorded Picture Company
Жанр: Боевик, драма, история
Режиссер: Такаси Миике
Продюсер: Сигэдзи Маэда, Мисако Сака, Джереми Томас
Актеры: Такуя Кимура, Хана Сугисаки, Сота Фукуси, Хаято Итихара, Эрика Тода, Казуки Китамура, Тиаки Курияма, Синносукэ Мицусима, Кэн Канэко, Ёко Ямамото
Описание:
Самурай Мандзи случайно убил мужа сестры, после чего та немного подвинулась умом. Больше у девушки никого на свете нет, поэтому старший брат живёт только для того, чтобы её защищать. Однажды злодеи убивают сестру и калечат Мандзи, который желает лишь одного — смерти, но рядом вдруг оказывается странная старушка. Она заражает самурая кровяными червями — загадочными паразитами, которые делают своего носителя бессмертным, затягивая раны и восстанавливая отрубленные конечности. 80 лет спустя та же старушка направляет к самураю девушку, желающую отомстить за смерть отца. Девушку, как две капли воды похожую на покойную сестру Мандзи.

Рейтинг MPAA: R (лицам до 17 лет обязательно присутствие взрослого)
Премьера (мир): 29 апреля 2017
Релиз от: BadBajo @ MR Sergei
Продолжительность: 02:20:58
Качество видео: BDRemux 1080p
Перевод: Одноголосый закадровый, авторский
Озвучка / Автор перевода: А.Важенин (BadBajo)
Субтитры: Английские
Видео: AVC/H.264, 1920х1080 (16:9), ~31659 kbps, 23.976 fps
Аудио #1: DTS-HD MA, 5.1, 48 kHz, 3592 kbps, 24-bit l Русский*
Аудио #2: DTS-HD MA, 5.1, 48 kHz, 3578 kbps, 24-bit l Японский
*За работу со звуком спасибо rammzez
Mediainfo:
Общее
Уникальный идентификатор : 251721214917419702951228476894196240306 (0xBD5FBE1768CF8EBB92C6F146B02F8FB2)
Полное имя : D:\Фильмы\Klinok.Bessmertnogo.2017.BDRemux.1080p.NNMClub.mkv
Формат : Matroska
Версия формата : Version 4 / Version 2
Размер файла : 38,2 Гбайт
Продолжительность : 2 ч. 20 м.
Режим общего битрейта : Переменный
Общий поток : 38,8 Мбит/сек
Название фильма : BadBajo @ MR Sergei for NoNaMe Club
Дата кодирования : UTC 2017-11-14 15:26:04
Программа кодирования : mkvmerge v17.0.0 ('Be Ur Friend') 64-bit
Библиотека кодирования : libebml v1.3.5 + libmatroska v1.4.8
Attachments : Mugen-no-junin.jpg
Видео
Идентификатор : 1
Формат : AVC
Формат/Информация : Advanced Video Codec
Профиль формата : High@L4.1
Настройки формата : CABAC / 2 Ref Frames
Параметр CABAC формата : Да
Параметр RefFrames формата : 2 кадра
Идентификатор кодека : V_MPEG4/ISO/AVC
Продолжительность : 2 ч. 20 м.
Вид битрейта : Переменный
Битрейт : 31,7 Мбит/сек
Максимальный битрейт : 40,0 Мбит/сек
Ширина : 1920 пикселей
Высота : 1080 пикселей
Соотношение сторон : 16:9
Режим частоты кадров : Постоянный
Частота кадров : 23,976 (24000/1001) кадра/сек
Цветовое пространство : YUV
Субдискретизация насыщенности : 4:2:0
Битовая глубина : 8 бит
Тип развёртки : Прогрессивная
Бит/(Пиксели*Кадры) : 0.637
Размер потока : 31,2 Гбайт (82%)
Язык : English
Default : Да
Forced : Нет
Аудио #1
Идентификатор : 2
Формат : DTS
Формат/Информация : Digital Theater Systems
Профиль формата : MA / Core
Идентификатор кодека : A_DTS
Продолжительность : 2 ч. 20 м.
Вид битрейта : Переменный / Постоянный
Битрейт : 3591 Кбит/сек / 1509 Кбит/сек
Каналы : 6 каналов
Расположение каналов : Front: L C R, Side: L R, LFE
Частота : 48,0 КГц
Частота кадров : 93,750 кадра/сек (512 SPF)
Битовая глубина : 24 бит
Метод сжатия : Без потерь / Lossy
Размер потока : 3,54 Гбайт (9%)
Язык : Russian
Default : Да
Forced : Нет
Аудио #2
Идентификатор : 3
Формат : DTS
Формат/Информация : Digital Theater Systems
Профиль формата : MA / Core
Идентификатор кодека : A_DTS
Продолжительность : 2 ч. 20 м.
Вид битрейта : Переменный / Постоянный
Битрейт : 3578 Кбит/сек / 1509 Кбит/сек
Каналы : 6 каналов
Расположение каналов : Front: L C R, Side: L R, LFE
Частота : 48,0 КГц
Частота кадров : 93,750 кадра/сек (512 SPF)
Битовая глубина : 24 бит
Метод сжатия : Без потерь / Lossy
Размер потока : 3,52 Гбайт (9%)
Язык : Japanese
Default : Нет
Forced : Нет
Текст
Идентификатор : 4
Формат : UTF-8
Идентификатор кодека : S_TEXT/UTF8
Идентификатор кодека/Информация : UTF-8 Plain Text
Продолжительность : 2 ч. 16 м.
Битрейт : 24 бит/сек
ElementCount : 976
Размер потока : 24,3 Кбайт (0%)
Язык : English
Default : Нет
Forced : Нет
Меню
00:00:00.000 : en:Chapter 01
00:11:51.168 : en:Chapter 02
00:25:10.675 : en:Chapter 03
00:42:28.254 : en:Chapter 04
00:52:53.420 : en:Chapter 05
01:01:27.684 : en:Chapter 06
01:16:27.583 : en:Chapter 07
01:28:38.855 : en:Chapter 08
01:36:22.109 : en:Chapter 09
01:45:16.518 : en:Chapter 10
02:01:52.013 : en:Chapter 11
02:16:54.080 : en:Chapter 12
02:20:57.073 : en:Chapter 13
Avdump:
File: D:\Фильмы\Klinok.Bessmertnogo.2017.BDRemux.1080p.NNMClub.mkv
Duration: 02:20:58 (8458.1)
Track #1: video
lang: Unknown (1)
codc: V_MPEG4/ISO/AVC -> H264/AVC (22)
reso: 1920x1080 -> 16:9
fram: 23.976 fps
rate: 31658 kbps (31658.3)
dura: 02:20:58 (8458.03)
size: 31.17 GB (33470880740)
Track #2: audio
lang: rus -> Russian (15)
codc: A_DTS -> DTS (13)
chan: 6 -> 5.1 Surround
samp: 48000 Hz
rate: 3592 kbps (3591.85)
dura: 02:20:58 (8458.02)
size: 3.54 GB (3797488131)
Track #3: audio
lang: jpn -> Japanese (2)
codc: A_DTS -> DTS (13)
chan: 6 -> 5.1 Surround
samp: 48000 Hz
rate: 3579 kbps (3578.76)
dura: 02:20:58 (8458.02)
size: 3.52 GB (3783649118)
Track #4: subtitles
lang: Unknown (1)
type: S_TEXT/UTF8 -> SRT (3)
size: 24.33 KB (24917)
Sizes: (check sanity)
disk: 38.24 GB (41055831383)
atts: 44.58 KB (45649)
trac: 10.23 GB (10987271834) [based on track size]
bitr: 38.23 GB (41052034677) [based on bitrate]
tdif: 28.00 GB (30068513900) 73.23%
bdif: 3.58 MB (3751056) 0.00%
Скриншоты:
Все одноименные релизы в КлубеВремя раздачи: 24/7 (до появления первых 3-5 скачавших)
[Профиль] [ЛС]
Показать сообщения:    
Ответить на тему

Текущее время: 20-Окт 19:59

Часовой пояс: UTC + 3



Вы не можете начинать темы
Вы не можете отвечать на сообщения
Вы не можете редактировать свои сообщения
Вы не можете удалять свои сообщения
Вы не можете голосовать в опросах
Вы не можете прикреплять файлы к сообщениям
Вы не можете скачивать файлы