Сегодня идет свободное скачивание без начисления Download

Mamma Mia! 2 / Mamma Mia! Here We Go Again (2018) WEB-DL 1080p | iTunes

Ответить на тему
Статистика раздачи
Размер:  4,24 GB   |    Зарегистрирован:  6 дней   |    Скачан:  0 раз
Сидов:  443  [  0 KB/s  ]   Личеров:  115  [  0 KB/s  ]   Подробная статистика пиров
 
   
 
 
Автор Сообщение

Bot ®

Стаж: 6 лет 5 месяцев

Сообщений: 35471

Откуда: СССР

Создавать темы 11-Окт-2018 16:24

[Цитировать]

Информация о фильме
Название: Mamma Mia! 2
Оригинальное название: Mamma Mia! Here We Go Again
Год выхода: 2018
Жанр: Мюзикл, комедия
Режиссер: Ол Паркер
В ролях: Лили Джеймс, Аманда Сайфред, Мэрил Стрип, Доминик Купер, Шер, Кристин Барански, Пирс Броснан, Колин Фёрт, Энди Гарсиа, Стеллан Скарсгард

О фильме: Сбежать на райский греческий остров, чтобы гулять по улочкам очаровательного города, наслаждаться местной кухней, танцевать до утра, кататься на яхте и влюбиться без памяти - что может быть лучше? Звучит, как идеальный план на лето... да и на всю жизнь тоже.
Страна: Великобритания, США
Студия: Legendary Pictures, Universal
Продолжительность: 01:53:39
Перевод: Дублированный | iTunes
Качество: WEB-DL 1080p
Видео: MPEG-4 AVC, 1920x798, 4565 Кbit/s, 23.976 fps
Звук:
Аудио #01: 48 kHz, AC3, 5.1, 384 Kbps | iTunes | RUS |
Аудио #02: 48 kHz, AC3, 5.1, 384 Kbps | Оригинал | ENG |
Субтитры: Английские
MI
General
Unique ID : 235565530180342296612550230438826019916 (0xB138455607EA44CAA225F1F384E50C4C)
Complete name : D:Video111Mamma.Mia.Here.We.Go.Again.2018.1080p.WEB-DL.Rus.Eng.TeamHD.mkv
Format : Matroska
Format version : Version 4
File size : 4.24 GiB
Duration : 1 h 53 min
Overall bit rate : 5 336 kb/s
Movie name : Mamma.Mia.Here.We.Go.Again.2018 TeamHD-селезень
Encoded date : UTC 2018-10-10 22:35:49
Writing application : mkvmerge v7.3.0 ('Nouages') 64bit built on Oct 22 2014 18:53:34
Writing library : libebml v1.3.0 + libmatroska v1.4.1
Video
ID : 1
Format : AVC
Format/Info : Advanced Video Codec
Format profile : High@L4
Format settings : CABAC / 5 Ref Frames
Format settings, CABAC : Yes
Format settings, ReFrames : 5 frames
Codec ID : V_MPEG4/ISO/AVC
Duration : 1 h 53 min
Bit rate : 4 565 kb/s
Width : 1 920 pixels
Height : 798 pixels
Display aspect ratio : 2.40:1
Frame rate mode : Constant
Frame rate : 23.976 (24000/1001) FPS
Color space : YUV
Chroma subsampling : 4:2:0
Bit depth : 8 bits
Scan type : Progressive
Bits/(Pixel*Frame) : 0.124
Stream size : 3.62 GiB (86%)
Language : English
Default : Yes
Forced : No
Color range : Limited
Color primaries : BT.709
Transfer characteristics : BT.709
Matrix coefficients : BT.709
Audio #1
ID : 2
Format : AC-3
Format/Info : Audio Coding 3
Commercial name : Dolby Digital
Codec ID : A_AC3
Duration : 1 h 53 min
Bit rate mode : Constant
Bit rate : 384 kb/s
Channel(s) : 6 channels
Channel layout : L R C LFE Ls Rs
Sampling rate : 48.0 kHz
Frame rate : 31.250 FPS (1536 SPF)
Bit depth : 16 bits
Compression mode : Lossy
Delay relative to video : -42 ms
Stream size : 312 MiB (7%)
Title : iTunes
Language : Russian
Service kind : Complete Main
Default : Yes
Forced : Yes
Audio #2
ID : 3
Format : AC-3
Format/Info : Audio Coding 3
Commercial name : Dolby Digital
Codec ID : A_AC3
Duration : 1 h 53 min
Bit rate mode : Constant
Bit rate : 384 kb/s
Channel(s) : 6 channels
Channel layout : L R C LFE Ls Rs
Sampling rate : 48.0 kHz
Frame rate : 31.250 FPS (1536 SPF)
Bit depth : 16 bits
Compression mode : Lossy
Delay relative to video : -42 ms
Stream size : 312 MiB (7%)
Title : Original
Language : English
Service kind : Complete Main
Default : No
Forced : No
Text #1
ID : 4
Format : UTF-8
Codec ID : S_TEXT/UTF8
Codec ID/Info : UTF-8 Plain Text
Duration : 1 h 53 min
Bit rate : 75 b/s
Count of elements : 2177
Stream size : 62.4 KiB (0%)
Title : SDH
Language : English
Default : No
Forced : No
Text #2
ID : 5
Format : UTF-8
Codec ID : S_TEXT/UTF8
Codec ID/Info : UTF-8 Plain Text
Duration : 1 h 51 min
Bit rate : 153 b/s
Count of elements : 2134
Stream size : 126 KiB (0%)
Title : SDH Colored
Language : English
Default : No
Forced : No
Menu
00:00:00.000 : en:1
00:03:00.805 : en:2
00:09:09.798 : en:3
00:16:42.000 : en:4
00:24:24.712 : en:5
00:26:56.029 : en:6
00:34:59.887 : en:7
00:39:14.474 : en:8
00:43:48.498 : en:9
00:50:28.356 : en:10
00:53:27.868 : en:11
00:58:32.672 : en:12
01:04:53.386 : en:13
01:15:12.296 : en:14
01:24:54.044 : en:15
01:27:05.508 : en:16
01:28:59.914 : en:17
01:33:02.781 : en:18
01:37:20.246 : en:19
01:43:10.512 : en:20
[realmt.org].t1140236.torrent 
Торрент: Зарегистрирован [ 2018-10-11 16:25 ] · A806548D004F4B321BC587D2C405A44DF400E4E4

Скачать .torrent

Скачать

86 KB

Статус: проверено
Скачан: 0 раз
Размер: 4,24 GB
terms.php
Последние поблагодарившие
[Профиль] [ЛС]
Быстрый ответ

Имя:

      
Для отправки сообщений необходимо включить JavaScript
Показать сообщения:    
Ответить на тему

Текущее время: 18-Окт 15:20

Часовой пояс: UTC + 3



Вы можете начинать темы
Вы можете отвечать на сообщения
Вы не можете редактировать свои сообщения
Вы не можете удалять свои сообщения
Вы не можете голосовать в опросах
Вы не можете прикреплять файлы к сообщениям
Вы можете скачивать файлы