Сегодня идет свободное скачивание без начисления Download

Питбуль. Последний пес / Pitbull. Ostatni pies (2018) BDRip [H.264/720p] [AVO]

Ответить на тему
 
Автор Сообщение

Bot ®

Стаж: 3 года 6 месяцев

Сообщений: 9

Создавать темы 11-Окт-2018 16:32

[Цитировать]

Питбуль. Последний пес / Pitbull. Ostatni pies (2018) BDRip - Производство: Польша, Ent One
Жанр: Боевик, Драма, Криминал
Режиссер: Владислав Пасиковский
Актеры: Марчин Дорочиньский, Кшиштоф Строиньский, Дорота Рабчевска, Рафаль Мор, Цезарь Пазура, Адам Воронович, Мариан Дзендзель, Агнешка Кавиорска, Мирослява Малюдзинская, Изабела Куна
Описание:
Преступные банды Варшавы соперничают между собой за власть над территорией. Длительная борьба между группировками из Воломина и Прушкова прерывается неожиданным появлением третьего участника. В это время неизвестные бандиты жестоко убивают полицейского Сочека. Чтобы найти убийц, коменданту приходится вызвать в столицу самых опытных полицейских, которые теперь работают в провинциальных городах страны. Так, вскоре в Варшаву прибывают настоящие профессионалы Десперо и Метыль, а также из Вашингтона прилетает Квантико. Теперь троице приходится погрузиться в криминальный мир и сделать всё возможное, чтобы противостоять разгулявшейся преступности.

Дата мировой премьеры: 15 марта 2018
Продолжительность: 02:03:56
Качество видео: BDRip
Перевод: Одноголосый закадровый, авторский
Озвучка / Автор перевода: Михаил Чадов
Субтитры: Русские (Forced, full (цензурный и без цензуры)), английский, польский (Forced)
Видео: AVC/H.264, 1280х536, ~4394 Kbps
Аудио #1: AC3, 6 ch, 640 Kbps | Русский (AVO М.Чадов (цензурный))
Аудио #2: AC3, 2 ch, 640 Kbps | Русский (AVO М.Чадов (без цензуры))
Аудио #3: AC3, 2 ch, 640 Kbps | Польский
Mediainfo:
Общее
Уникальный идентификатор : 206418448216996889379894782955752926257 (0x9B4ABF3EA2ECE904A928578493662C31)
Полное имя : C:\Users\User\Downloads\Pitbull.Last Dog.2018.AVO.BDRip.720p.mkv
Формат : Matroska
Версия формата : Version 2
Размер файла : 5,46 Гбайт
Продолжительность : 2 ч. 3 м.
Общий поток : 6302 Кбит/сек
Название фильма : Pitbull. Ostatni pies (2018) from ExKinoRay
Дата кодирования : UTC 2018-10-10 13:09:48
Программа кодирования : mkvmerge v5.6.0 ('Kenya Kane') built on May 27 2012 16:44:04
Библиотека кодирования : libebml v1.2.3 + libmatroska v1.3.0
Видео
Идентификатор : 1
Формат : AVC
Формат/Информация : Advanced Video Codec
Профиль формата : High@L4.1
Настройки формата : CABAC / 12 Ref Frames
Параметр CABAC формата : Да
Параметр RefFrames формата : 12 кадров
Идентификатор кодека : V_MPEG4/ISO/AVC
Продолжительность : 2 ч. 3 м.
Битрейт : 4394 Кбит/сек
Ширина : 1280 пикселей
Высота : 536 пикселей
Соотношение сторон : 2,40:1
Режим частоты кадров : Постоянный
Частота кадров : 24,000 кадра/сек
Цветовое пространство : YUV
Субдискретизация насыщенности : 4:2:0
Битовая глубина : 8 бит
Тип развёртки : Прогрессивная
Бит/(Пиксели*Кадры) : 0.267
Размер потока : 3,68 Гбайт (68%)
Заголовок : Enigma
Библиотека кодирования : x264 core 148 r2638 7599210
Настройки программы : cabac=1 / ref=12 / deblock=1:-2:-2 / analyse=0x3:0x113 / me=umh / subme=11 / psy=1 / psy_rd=0.98:0.10 / mixed_ref=1 / me_range=32 / chroma_me=1 / trellis=2 / 8x8dct=1 / cqm=0 / deadzone=21,11 / fast_pskip=0 / chroma_qp_offset=-3 / threads=12 / lookahead_threads=3 / sliced_threads=0 / nr=0 / decimate=1 / interlaced=0 / bluray_compat=0 / constrained_intra=0 / bframes=10 / b_pyramid=2 / b_adapt=2 / b_bias=0 / direct=3 / weightb=1 / open_gop=0 / weightp=2 / keyint=240 / keyint_min=24 / scenecut=40 / intra_refresh=0 / rc_lookahead=40 / rc=2pass / mbtree=0 / bitrate=4394 / ratetol=1.0 / qcomp=0.60 / qpmin=0 / qpmax=51 / qpstep=4 / cplxblur=20.0 / qblur=0.5 / vbv_maxrate=50000 / vbv_bufsize=62500 / nal_hrd=none / filler=0 / ip_ratio=1.40 / pb_ratio=1.30 / aq=2:0.90
Default : Да
Forced : Нет
Цветовой диапазон : Limited
Основные цвета : BT.709
Характеристики трансфера : BT.709
Коэффициенты матрицы : BT.709
Аудио #1
Идентификатор : 2
Формат : AC-3
Формат/Информация : Audio Coding 3
Коммерческое название : Dolby Digital
Идентификатор кодека : A_AC3
Продолжительность : 2 ч. 3 м.
Вид битрейта : Постоянный
Битрейт : 640 Кбит/сек
Каналы : 6 каналов
Channel layout : L R C LFE Ls Rs
Частота : 48,0 КГц
Частота кадров : 31,250 кадров/сек (1536 SPF)
Битовая глубина : 16 бит
Метод сжатия : С потерями
Размер потока : 567 Мбайт (10%)
Заголовок : AVO (Chadov) cens
Язык : Russian
ServiceKind/String : Complete Main
Default : Да
Forced : Нет
Аудио #2
Идентификатор : 3
Формат : AC-3
Формат/Информация : Audio Coding 3
Коммерческое название : Dolby Digital
Идентификатор кодека : A_AC3
Продолжительность : 2 ч. 3 м.
Вид битрейта : Постоянный
Битрейт : 640 Кбит/сек
Каналы : 6 каналов
Channel layout : L R C LFE Ls Rs
Частота : 48,0 КГц
Частота кадров : 31,250 кадров/сек (1536 SPF)
Битовая глубина : 16 бит
Метод сжатия : С потерями
Размер потока : 567 Мбайт (10%)
Заголовок : AVO (Chadov) uncens
Язык : Russian
ServiceKind/String : Complete Main
Default : Нет
Forced : Нет
Аудио #3
Идентификатор : 4
Формат : AC-3
Формат/Информация : Audio Coding 3
Коммерческое название : Dolby Digital
Идентификатор кодека : A_AC3
Продолжительность : 2 ч. 3 м.
Вид битрейта : Постоянный
Битрейт : 640 Кбит/сек
Каналы : 6 каналов
Channel layout : L R C LFE Ls Rs
Частота : 48,0 КГц
Частота кадров : 31,250 кадров/сек (1536 SPF)
Битовая глубина : 16 бит
Метод сжатия : С потерями
Размер потока : 567 Мбайт (10%)
Язык : Polish
ServiceKind/String : Complete Main
Default : Нет
Forced : Нет
Текст #1
Идентификатор : 5
Формат : UTF-8
Идентификатор кодека : S_TEXT/UTF8
Идентификатор кодека/Информация : UTF-8 Plain Text
Заголовок : Forced
Язык : Russian
Default : Да
Forced : Нет
Текст #2
Идентификатор : 6
Формат : UTF-8
Идентификатор кодека : S_TEXT/UTF8
Идентификатор кодека/Информация : UTF-8 Plain Text
Заголовок : Full
Язык : Russian
Default : Нет
Forced : Нет
Текст #3
Идентификатор : 7
Формат : UTF-8
Идентификатор кодека : S_TEXT/UTF8
Идентификатор кодека/Информация : UTF-8 Plain Text
Заголовок : Forced
Язык : Polish
Default : Нет
Forced : Нет
Текст #4
Идентификатор : 8
Формат : UTF-8
Идентификатор кодека : S_TEXT/UTF8
Идентификатор кодека/Информация : UTF-8 Plain Text
Язык : English
Default : Нет
Forced : Нет
Меню
00:00:00.000 : :Chapter 01
00:06:46.500 : :Chapter 02
00:14:45.500 : :Chapter 03
00:22:57.666 : :Chapter 04
00:30:05.458 : :Chapter 05
00:39:34.708 : :Chapter 06
00:46:39.791 : :Chapter 07
00:53:59.583 : :Chapter 08
01:03:47.083 : :Chapter 09
01:09:17.041 : :Chapter 10
01:17:20.291 : :Chapter 11
01:24:39.750 : :Chapter 12
01:31:37.125 : :Chapter 13
01:36:00.166 : :Chapter 14
01:43:36.833 : :Chapter 15
01:57:12.500 : :Chapter 16
Скриншоты:
Все одноименные релизы в КлубеВремя раздачи: 24/7 (до появления первых 3-5 скачавших)
[Профиль] [ЛС]
Показать сообщения:    
Ответить на тему

Текущее время: 17-Окт 21:07

Часовой пояс: UTC + 3



Вы не можете начинать темы
Вы не можете отвечать на сообщения
Вы не можете редактировать свои сообщения
Вы не можете удалять свои сообщения
Вы не можете голосовать в опросах
Вы не можете прикреплять файлы к сообщениям
Вы не можете скачивать файлы