Сегодня идет свободное скачивание без начисления Download

Тихоокеанский рубеж 2 / Pacific Rim: Uprising (2018) BDRip 3D [H.264/1080p] [Вертикальная анаморфная стереопара]

Ответить на тему
 
Автор Сообщение

Bot ®

Стаж: 3 года 1 месяц

Сообщений: 10

Создавать темы 11-Окт-2018 16:32

[Цитировать]

Тихоокеанский рубеж 2 / Pacific Rim: Uprising (2018) BDRip[H.264/1080p] [3D] - Производство: США, Китай, Великобритания, Double Dare You (DDY), Double Negative, Legendary Pictures, Perfect World (Beijing) Pictures Co., Twisted Media, Universal Pictures
Жанр: Фантастика, Боевик, Приключения
Режиссер: Стивен С. ДеНайт
Продюсер: Джей Эшенфелтер, Джон Бойега, Кейл Бойтер
Актеры: Джон Бойега, Скотт Иствуд, Кэйли Спэни, Берн Горман, Чарли Дэй, Цзин Тянь, Макс Чжан, Адриа Архона, Ринко Кикути, Каран Брэр
Описание:
Команда пилотируемых роботов-защитников остановила вторжение гигантских инопланетных монстров. Великая битва за Тихоокеанский рубеж ознаменовала новую главу в истории человечества. Однако война только начинается…

Возраст: 12+ (зрителям, достигшим 12 лет)
Рейтинг MPAA: PG-13 (детям до 13 лет просмотр нежелателен)
Дата мировой премьеры: 21 марта 2018
Дата российской премьеры: 22 марта 2018, «UPI»
Релиз от: NNMClub
Продолжительность: 01:50:42
Качество видео: BDRip 3D (batonchik)
Перевод: Дублированный (iTunes); закадровый многоголосый, проф. (HDRezka)
Субтитры: (3D) Русские (Forced, Full), украинские (Forced)
Видео: AVC/H.264, 1920x1080 (16:9), ~11000 kbps, 23.976 fps
Аудио 1: AC-3, 5.1, 48 KHz, 384 Kbps | Русский (iTunes)
Аудио 2: AC-3, 2.0, 48 KHz, 192 Kbps | Русский (HDRezka)
Аудио 3: AC-3, 2.0, 48 KHz, 192 Kbps | Украинский
Аудио 4: AC-3, 5.1, 48 KHz, 448 Kbps | Английский
h.264 log:
avs [info]: 1920x1080p 1:1 @ 24000/1001 fps (cfr)
x264 [info]: using SAR=1/1
x264 [warning]: VBV bitrate (62500) > level limit (50000)
x264 [warning]: VBV buffer (78125) > level limit (62500)
x264 [info]: using cpu capabilities: MMX2 SSE2Fast SSSE3 SSE4.2 AVX
x264 [info]: profile Main, level 4.1
x264 [info]: frame I:1447 Avg QP:17.49 size:159625
x264 [info]: frame P:46688 Avg QP:19.57 size: 85057
x264 [info]: frame B:111112 Avg QP:21.06 size: 42752

x264 [info]: consecutive B-frames: 6.8% 6.9% 18.8% 24.8% 14.8% 24.6% 2.2% 0.
4% 0.7%
MediaInfo:
General
Complete name : \Тихоокеанский рубеж 2.2018.BDrip.3D Half-T&B.1080p.NNMClub.mkv
Format : Matroska
Format version : Version 4 / Version 2
File size : 9.47 GiB
Duration : 1 h 50 min
Overall bit rate : 12.2 Mb/s
Movie name : Тихоокеанский рубеж 2.2018.BDrip.3D Half-T&B.1080p.NNMClub
Encoded date : UTC 2018-10-11 03:37:47
Writing application : mkvmerge v27.0.0 ('Metropolis') 64-bit
Writing library : libebml v1.3.6 + libmatroska v1.4.9
Video
ID : 1
Format : AVC
Format/Info : Advanced Video Codec
Format profile : High@L4.1
MultiView_Count : 2
MultiView_Layout : Top-Bottom (left eye first)
Format settings : CABAC / 4 Ref Frames
Format settings, CABAC : Yes
Format settings, ReFrames : 4 frames
Codec ID : V_MPEG4/ISO/AVC
Duration : 1 h 50 min
Bit rate : 11.0 Mb/s
Width : 1 920 pixels
Height : 1 080 pixels
Display aspect ratio : 16:9
Frame rate mode : Constant
Frame rate : 23.976 (24000/1001) FPS
Color space : YUV
Chroma subsampling : 4:2:0
Bit depth : 8 bits
Scan type : Progressive
Bits/(Pixel*Frame) : 0.221
Stream size : 8.50 GiB (90%)
Title : Тихоокеанский рубеж 2.2018.BDrip.3D Half-T&B.1080p.NNMClub
Writing library : x264 core 155 r2901 7d0ff22
Encoding settings : cabac=1 / ref=4 / deblock=1:-2:-2 / analyse=0x3:0x133 / me=umh / subme=10 / psy=1 / psy_rd=1.00:0.25 / mixed_ref=1 / me_range=24 / chroma_me=1 / trellis=2 / 8x8dct=1 / cqm=0 / deadzone=6,6 / fast_pskip=1 / chroma_qp_offset=-4 / threads=12 / lookahead_threads=2 / sliced_threads=0 / nr=0 / decimate=0 / interlaced=0 / bluray_compat=0 / constrained_intra=0 / bframes=8 / b_pyramid=2 / b_adapt=2 / b_bias=0 / direct=3 / weightb=1 / open_gop=0 / weightp=2 / keyint=250 / keyint_min=23 / scenecut=40 / intra_refresh=0 / rc_lookahead=60 / rc=2pass / mbtree=1 / bitrate=11000 / ratetol=1.0 / qcomp=0.80 / qpmin=0 / qpmax=69 / qpstep=4 / cplxblur=20.0 / qblur=0.5 / vbv_maxrate=62500 / vbv_bufsize=78125 / nal_hrd=none / filler=0 / frame-packing=4 / ip_ratio=1.10 / aq=1:0.50
Default : Yes
Forced : No
Color range : Limited
Matrix coefficients : BT.709
Audio #1
ID : 2
Format : AC-3
Format/Info : Audio Coding 3
Codec ID : A_AC3
Duration : 1 h 50 min
Bit rate mode : Constant
Bit rate : 384 kb/s
Channel(s) : 6 channels
Channel positions : Front: L C R, Side: L R, LFE
Sampling rate : 48.0 kHz
Frame rate : 31.250 FPS (1536 SPF)
Bit depth : 16 bits
Compression mode : Lossy
Stream size : 304 MiB (3%)
Title : Дублированный (iTunes)
Language : Russian
Service kind : Complete Main
Default : Yes
Forced : No
Audio #2
ID : 3
Format : AC-3
Format/Info : Audio Coding 3
Codec ID : A_AC3
Duration : 1 h 50 min
Bit rate mode : Constant
Bit rate : 192 kb/s
Channel(s) : 2 channels
Channel positions : Front: L R
Sampling rate : 48.0 kHz
Frame rate : 31.250 FPS (1536 SPF)
Bit depth : 16 bits
Compression mode : Lossy
Stream size : 152 MiB (2%)
Title : MVO - HDRezka
Language : Russian
Service kind : Complete Main
Default : No
Forced : No
Audio #3
ID : 4
Format : AC-3
Format/Info : Audio Coding 3
Codec ID : A_AC3
Duration : 1 h 50 min
Bit rate mode : Constant
Bit rate : 192 kb/s
Channel(s) : 2 channels
Channel positions : Front: L R
Sampling rate : 48.0 kHz
Frame rate : 31.250 FPS (1536 SPF)
Bit depth : 16 bits
Compression mode : Lossy
Stream size : 152 MiB (2%)
Title : Ukrainian
Language : Ukrainian
Service kind : Complete Main
Default : No
Forced : No
Audio #4
ID : 5
Format : AC-3
Format/Info : Audio Coding 3
Codec ID : A_AC3
Duration : 1 h 50 min
Bit rate mode : Constant
Bit rate : 448 kb/s
Channel(s) : 6 channels
Channel positions : Front: L C R, Side: L R, LFE
Sampling rate : 48.0 kHz
Frame rate : 31.250 FPS (1536 SPF)
Bit depth : 16 bits
Compression mode : Lossy
Stream size : 355 MiB (4%)
Title : English (Original AC3)
Language : English
Service kind : Complete Main
Default : No
Forced : No
Text #1
ID : 6
Format : PGS
Muxing mode : zlib
Codec ID : S_HDMV/PGS
Codec ID/Info : Picture based subtitle format used on BDs/HD-DVDs
Duration : 1 h 38 min
Bit rate : 1 442 b/s
Count of elements : 52
Stream size : 1.01 MiB (0%)
Title : Форс.
Language : Russian
Default : Yes
Forced : No
Text #2
ID : 7
Format : PGS
Muxing mode : zlib
Codec ID : S_HDMV/PGS
Codec ID/Info : Picture based subtitle format used on BDs/HD-DVDs
Duration : 1 h 40 min
Bit rate : 70.5 kb/s
Count of elements : 2382
Stream size : 50.5 MiB (1%)
Title : Полные
Language : Russian
Default : No
Forced : No
Text #3
ID : 8
Format : PGS
Muxing mode : zlib
Codec ID : S_HDMV/PGS
Codec ID/Info : Picture based subtitle format used on BDs/HD-DVDs
Duration : 1 h 40 min
Bit rate : 3 643 b/s
Count of elements : 122
Stream size : 2.62 MiB (0%)
Title : Ukrainian 3D (BD SUP)
Language : Ukrainian
Default : No
Forced : No
Menu
00:00:00.000 : en:Chapter 01
00:06:54.872 : en:Chapter 02
00:13:05.365 : en:Chapter 03
00:13:05.366 : en:Chapter 04
00:13:05.368 : en:Chapter 05
00:15:51.075 : en:Chapter 06
00:20:36.357 : en:Chapter 07
00:20:36.358 : en:Chapter 08
00:20:36.359 : en:Chapter 09
00:24:49.693 : en:Chapter 10
00:24:49.695 : en:Chapter 11
00:31:08.240 : en:Chapter 12 / en:Chapter 13
00:37:56.064 : en:Chapter 14
00:43:37.947 : en:Chapter 15 / en:Chapter 16
00:43:37.948 : en:Chapter 17
00:49:01.938 : en:Chapter 18
00:53:40.925 : en:Chapter 19 / en:Chapter 20
00:58:12.030 : en:Chapter 21
01:04:45.005 : en:Chapter 22 / en:Chapter 23
01:09:25.536 : en:Chapter 24
01:14:36.720 : en:Chapter 25 / en:Chapter 26 / en:Chapter 27
01:22:53.426 : en:Chapter 28
01:29:02.545 : en:Chapter 29
01:29:02.546 : en:Chapter 30
01:33:10.585 : en:Chapter 31
01:38:07.381 : en:Chapter 32
01:40:55.046 : en:Chapter 33
01:40:55.047 : en:Chapter 34
Скриншоты:
Все одноименные релизы в КлубеВремя раздачи: 24/7 (до появления первых 3-5 скачавших)
[Профиль] [ЛС]
Показать сообщения:    
Ответить на тему

Текущее время: 23-Окт 08:06

Часовой пояс: UTC + 3



Вы не можете начинать темы
Вы не можете отвечать на сообщения
Вы не можете редактировать свои сообщения
Вы не можете удалять свои сообщения
Вы не можете голосовать в опросах
Вы не можете прикреплять файлы к сообщениям
Вы не можете скачивать файлы