Сегодня идет свободное скачивание без начисления Download

Тихоокеанский рубеж 2 / Pacific Rim: Uprising (2018) BDRip 3D [H.264/1080p] [Горизонтальная анаморфная стереопара]

Ответить на тему
 
Автор Сообщение

Bot ®

Стаж: 4 года 2 месяца

Сообщений: 10

Создавать темы 31-Окт-2018 09:47

[Цитировать]

Тихоокеанский рубеж 2 / Pacific Rim: Uprising (2018) BDRip 3D [H.264/1080p] [Горизонтальная анаморфная стереопара]«Rise up»- Производство: США, Китай, Великобритания / Universal Pictures
Жанр: фантастика, боевик, приключения
Режиссер: Стивен С. ДеНайт
Продюсер: Джей Эшенфелтер, Джон Бойега, Кейл Бойтер
Актеры: Джон Бойега, Скотт Иствуд, Кэйли Спэни, Берн Горман, Чарли Дэй, Тянь Цзин, Макс Чжан, Адриа Архона, Ринко Кикучи, Каран Брэр и др.
Описание:
Команда пилотируемых роботов-защитников остановила вторжение гигантских инопланетных монстров. Великая битва за Тихоокеанский рубеж ознаменовала новую главу в истории человечества. Однако война только начинается…
Пришло время нового поколения отстаивать своё право на Землю.

Возраст: 12+ (зрителям, достигшим 12 лет)
Рейтинг MPAA: PG-13 (детям до 13 лет просмотр нежелателен)
Премьера (мир): 21 марта 2018
Премьера (РФ): 22 марта 2018, «UPI» 3D

Релиз от: Sеvеn
Продолжительность: 01:50:42
Качество: BDRip 3D
Перевод: Дублированный (Лицензия EUR)
Субтитры: Русские (форсированные, полные), английские (полные)
Видео: AVC/H.264, 1920x1080, (16:9), 12 Mbps, 23.976 fps
Аудио 1: AC3, 6 ch, 640 kbps - Русский
Аудио 2: AC3, 6 ch, 448 kbps - Английский
Mediainfo:
Формат : Matroska
Версия формата : Version 4
Размер файла : 10,1 Гбайт
Продолжительность : 1 ч. 50 м.
Общий поток : 13,1 Мбит/сек
Название фильма : Тихоокеанский рубеж 2 / Pacific Rim Uprising / 2018
Дата кодирования : UTC 2018-09-11 17:03:28
Программа кодирования : mkvmerge v26.0.0 ('In The Game') 32-bit
Библиотека кодирования : libebml v1.3.6 + libmatroska v1.4.9
Видео
Идентификатор : 1
Формат : AVC
Формат/Информация : Advanced Video Codec
Профиль формата : High@L4.1
Настройки формата : CABAC / 4 Ref Frames
Параметр CABAC формата : Да
Параметр RefFrames формата : 4 кадра
Идентификатор кодека : V_MPEG4/ISO/AVC
Продолжительность : 1 ч. 50 м.
Битрейт : 12,0 Мбит/сек
Ширина : 1920 пикселей
Высота : 1080 пикселей
Соотношение сторон : 16:9
Режим частоты кадров : Постоянный
Частота кадров : 23,976 (24000/1001) кадра/сек
Цветовое пространство : YUV
Субдискретизация насыщенности : 4:2:0
Битовая глубина : 8 бит
Тип развёртки : Прогрессивная
Бит/(Пиксели*Кадры) : 0.241
Размер потока : 9,28 Гбайт (92%)
Заголовок : 3D HSBS
Библиотека кодирования : x264 core 146 r2538 121396c
Настройки программы : cabac=1 / ref=4 / deblock=1:-3:-3 / analyse=0x3:0x133 / me=umh / subme=11 / psy=1 / psy_rd=1.00:0.00 / mixed_ref=1 / me_range=48 / chroma_me=1 / trellis=2 / 8x8dct=1 / cqm=0 / deadzone=21,11 / fast_pskip=0 / chroma_qp_offset=-2 / threads=12 / lookahead_threads=1 / sliced_threads=0 / nr=0 / decimate=1 / interlaced=0 / bluray_compat=0 / constrained_intra=0 / bframes=6 / b_pyramid=2 / b_adapt=2 / b_bias=0 / direct=1 / weightb=1 / open_gop=0 / weightp=2 / keyint=240 / keyint_min=22 / scenecut=40 / intra_refresh=0 / rc_lookahead=60 / rc=2pass / mbtree=0 / bitrate=12000 / ratetol=1.0 / qcomp=0.60 / qpmin=0 / qpmax=69 / qpstep=4 / cplxblur=20.0 / qblur=0.5 / vbv_maxrate=50000 / vbv_bufsize=50000 / nal_hrd=none / filler=0 / ip_ratio=1.40 / pb_ratio=1.30 / aq=1:1.00
Язык : English
Default : Да
Forced : Нет
Аудио #1
Идентификатор : 2
Формат : AC-3
Формат/Информация : Audio Coding 3
Коммерческое название : Dolby Digital
Идентификатор кодека : A_AC3
Продолжительность : 1 ч. 50 м.
Вид битрейта : Постоянный
Битрейт : 640 Кбит/сек
Каналы : 6 каналов
Channel layout : L R C LFE Ls Rs
Частота : 48,0 КГц
Частота кадров : 31,250 кадров/сек (1536 SPF)
Битовая глубина : 16 бит
Метод сжатия : С потерями
Размер потока : 507 Мбайт (5%)
Заголовок : Dub BD EUR
Язык : Russian
ServiceKind/String : Complete Main
Default : Да
Forced : Нет
Аудио #2
Идентификатор : 3
Формат : AC-3
Формат/Информация : Audio Coding 3
Коммерческое название : Dolby Digital
Идентификатор кодека : A_AC3
Продолжительность : 1 ч. 50 м.
Вид битрейта : Постоянный
Битрейт : 448 Кбит/сек
Каналы : 6 каналов
Channel layout : L R C LFE Ls Rs
Частота : 48,0 КГц
Частота кадров : 31,250 кадров/сек (1536 SPF)
Битовая глубина : 16 бит
Метод сжатия : С потерями
Размер потока : 355 Мбайт (3%)
Заголовок : Original
Язык : English
ServiceKind/String : Complete Main
Default : Нет
Forced : Нет
Текст #1
Идентификатор : 4
Формат : UTF-8
Идентификатор кодека : S_TEXT/UTF8
Идентификатор кодека/Информация : UTF-8 Plain Text
Продолжительность : 1 ч. 38 м.
Битрейт : 1 бит/сек
ElementCount : 25
Размер потока : 1,15 Кбайт (0%)
Заголовок : Forced
Язык : Russian
Default : Да
Forced : Нет
Текст #2
Идентификатор : 5
Формат : UTF-8
Идентификатор кодека : S_TEXT/UTF8
Идентификатор кодека/Информация : UTF-8 Plain Text
Продолжительность : 1 ч. 40 м.
Битрейт : 104 бит/сек
ElementCount : 1191
Размер потока : 76,6 Кбайт (0%)
Заголовок : Full
Язык : Russian
Default : Нет
Forced : Нет
Текст #3
Идентификатор : 6
Формат : UTF-8
Идентификатор кодека : S_TEXT/UTF8
Идентификатор кодека/Информация : UTF-8 Plain Text
Продолжительность : 1 ч. 40 м.
Битрейт : 59 бит/сек
ElementCount : 1161
Размер потока : 43,4 Кбайт (0%)
Заголовок : Full
Язык : English
Default : Нет
Forced : Нет
Меню
00:00:00.000 : en:00:00:00.000
00:06:54.873 : en:00:06:54.873
00:13:05.368 : en:00:13:05.368
00:15:51.075 : en:00:15:51.075
00:20:36.360 : en:00:20:36.360
00:24:49.697 : en:00:24:49.697
00:31:08.241 : en:00:31:08.241
00:37:56.065 : en:00:37:56.065
00:43:37.949 : en:00:43:37.949
00:49:01.939 : en:00:49:01.939
00:53:40.926 : en:00:53:40.926
00:58:12.030 : en:00:58:12.030
01:04:45.006 : en:01:04:45.006
01:09:25.536 : en:01:09:25.536
01:14:36.722 : en:01:14:36.722
01:22:53.427 : en:01:22:53.427
01:29:02.546 : en:01:29:02.546
01:33:10.585 : en:01:33:10.585
01:38:07.381 : en:01:38:07.381
01:40:55.049 : en:01:40:55.049
Трейлер:
Скриншоты:
Релизы фильма "Тихоокеанский рубеж 2 / Pacific Rim: Uprising" на NNM ClubВремя раздачи: с 9:00 до 23:00
[Профиль] [ЛС]
Показать сообщения:    
Ответить на тему

Текущее время: 19-Ноя 08:17

Часовой пояс: UTC + 3



Вы не можете начинать темы
Вы не можете отвечать на сообщения
Вы не можете редактировать свои сообщения
Вы не можете удалять свои сообщения
Вы не можете голосовать в опросах
Вы не можете прикреплять файлы к сообщениям
Вы не можете скачивать файлы