Сегодня идет свободное скачивание без начисления Download

Главная дорога (03.11.2018) SATRip

Ответить на тему
 
Автор Сообщение

Bot ®

Стаж: 3 года 7 месяцев

Сообщений: 11

Создавать темы 03-Ноя-2018 12:02

[Цитировать]

Главная дорога (03.11.2018) SATRip- Телекомпания: НТВ
Жанр: Телепередача
Описание:
«Главная дорога» — первая на российском телевидении информационная программа обо всем, что происходит на дорогах страны. Это полчаса полезной информации не только для автолюбителей, но и для пешеходов. В постоянной рубрике «Испытано на себе» зрителей ждут наглядные советы, как вести себя в сложных ситуациях на дорогах. Сложнейший курс контраварийной подготовки, адаптированный для массового зрителя, научит водителей уверенно держаться за рулем.
Релиз от: -=FOX=-
Продолжительность: 00:31:35
Качество видео: SATRip
Видео: Xvid, 720x448, ~1800 kbps
Аудио: MP3, 2 ch, 128 Kbps
Mediainfo:
Общее
Полное имя : Glavnaya.doroga.(2018.11.03).SATRip..avi
Формат : AVI
Формат/Информация : Audio Video Interleave
Размер файла : 438 Мбайт
Продолжительность : 31 м. 35 с.
Общий поток : 1938 Кбит/сек
Программа кодирования : VirtualDubMod 1.5.10.3 | www.virtualdub-fr.org || (build 2550/release)
Библиотека кодирования : VirtualDubMod build 2550/release
Видео
Идентификатор : 0
Формат : MPEG-4 Visual
Профиль формата : Advanced Simple@L5
Настройки формата : BVOP2
Параметр BVOP формата : 2
Параметр QPel формата : Нет
Параметр GMC формата : Без точки перехода
Параметр матрицы формата : Default (MPEG)
Идентификатор кодека : XVID
Идентификатор кодека/Подсказка : XviD
Продолжительность : 31 м. 35 с.
Битрейт : 1800 Кбит/сек
Ширина : 720 пикселей
Высота : 448 пикселей
Соотношение сторон : 16:10
Частота кадров : 25,000 кадров/сек
Цветовое пространство : YUV
Субдискретизация насыщенности : 4:2:0
Битовая глубина : 8 бит
Тип развёртки : Прогрессивная
Метод сжатия : С потерями
Бит/(Пиксели*Кадры) : 0.223
Размер потока : 407 Мбайт (93%)
Библиотека кодирования : XviD 73
Аудио
Идентификатор : 1
Формат : MPEG Audio
Версия формата : Version 1
Профиль формата : Layer 3
Идентификатор кодека : 55
Идентификатор кодека/Подсказка : MP3
Продолжительность : 31 м. 35 с.
Вид битрейта : Постоянный
Битрейт : 128 Кбит/сек
Каналы : 2 канала
Частота : 48,0 КГц
Частота кадров : 41,667 кадра/сек (1152 SPF)
Метод сжатия : С потерями
Размер потока : 28,9 Мбайт (7%)
Выравнивание : Соединение по промежуткам
Продолжительность промежутка : 40 мс. (1,00 видеокадр)
Время предзагрузки промежутка : 504 мс.
Библиотека кодирования : LAME3.99r
Настройки программы : -m s -V 4 -q 2 -lowpass 17 -b 128
Скриншоты:
Все одноименные релизы в КлубеВремя раздачи: 24/7 (до появления первых 3-5 скачавших)
[Профиль] [ЛС]
Показать сообщения:    
Ответить на тему

Текущее время: 19-Ноя 06:56

Часовой пояс: UTC + 3



Вы не можете начинать темы
Вы не можете отвечать на сообщения
Вы не можете редактировать свои сообщения
Вы не можете удалять свои сообщения
Вы не можете голосовать в опросах
Вы не можете прикреплять файлы к сообщениям
Вы не можете скачивать файлы