Сегодня идет свободное скачивание без начисления Download

A-Ha - Headlines And Deadlines: The Hits Of A-Ha Vol.1 (1992) Unofficial Release [FLAC 2.0|192/24|image + .cue|Vinyl-Rip] <New Wave>

Ответить на тему
 
Автор Сообщение

Bot ®

Стаж: 3 года 10 месяцев

Сообщений: 9

Создавать темы 08-Ноя-2018 03:33

[Цитировать]

A-Ha - Headlines And Deadlines: The Hits Of A-Ha Vol.1 (1992)- Страна-производитель диска: Россия
Производство: Not On Label - Unofficial Release
Жанр: New Wave
Продолжительность: 00:31:59
Автор оцифровки: Bigbeer-Кодек: FLAC 2.0
Формат записи: 192/32
Формат раздачи: 192/24
Тип рипа: image+.cue-Треклист:
A1. Take On Me (3:48)
A2. Cry Wolf (4:07)
A3. Touchy (4:37)
A4. You Are The One (Remix) (3:46)
B1. Manhattan Skyline (4:50)
B2. The Blood That Moves The Body (4:05)
B3. Early Morning (2:59)
B4. Hunting High And Low (Remix) (3:46)
Technical info:
Код класса состояния винила: EX
Устройство воспроизведения: Technics SL-1200MK3D
Головка звукоснимателя: Audio Technica AT150MLX
Предварительный усилитель: Luxman L-510
Межблочник: Proel Die Hard DHG535LU18
АЦП: E-MU 1212m PCIe
Программа-оцифровщик: Adobe Audition CC 11.1.1.3
Обработка: удалил несколько щелчков, почистил паузы, fade in / out в паузах (Adobe Audition CC 11.1.1.3)
Cue Sheet (.cue):
REM GENRE New Wave
REM DATE 1992
REM COMMENT "rip by Bigbeer"
CATALOG "--"
REM LABEL Not On Label
PERFORMER "A-Ha"
TITLE "Headlines And Deadlines - The Hits Of A-Ha Vol.1"
FILE "A-Ha - Headlines And Deadlines - The Hits Of A-Ha Vol.1.flac" WAVE
TRACK 01 AUDIO
TITLE "Take On Me"
PERFORMER "A-Ha"
INDEX 01 00:00:00
TRACK 02 AUDIO
TITLE "Cry Wolf"
PERFORMER "A-Ha"
INDEX 01 03:47:48
TRACK 03 AUDIO
TITLE "Touchy"
PERFORMER "A-Ha"
INDEX 01 07:54:14
TRACK 04 AUDIO
TITLE "You Are The One (Remix)"
PERFORMER "A-Ha"
INDEX 01 12:31:24
TRACK 05 AUDIO
TITLE "Manhattan Skyline"
PERFORMER "A-Ha"
INDEX 01 16:17:54
TRACK 06 AUDIO
TITLE "The Blood That Moves The Body"
PERFORMER "A-Ha"
INDEX 01 21:08:08
TRACK 07 AUDIO
TITLE "Early Morning"
PERFORMER "A-Ha"
INDEX 01 25:13:25
TRACK 08 AUDIO
TITLE "Hunting High And Low (Remix)"
PERFORMER "A-Ha"
INDEX 01 28:12:57
MI:
Общее
Полное имя : D:\Vinyl\A-Ha - Headlines And Deadlines - The Hits Of A-Ha Vol.1 (1992)[VR Not On Label, Unofficial Release, RU]\A-Ha - Headlines And Deadlines - The Hits Of A-Ha Vol.1.flac
Формат : FLAC
Формат/Информация : Free Lossless Audio Codec
Размер файла : 1,19 Гбайт
Продолжительность : 31 м. 58 с.
Режим общего битрейта : Переменный
Общий поток : 5342 Кбит/сек
Альбом : Headlines And Deadlines - The Hits Of A-Ha Vol.1
Трек/Всего : 8
Исполнитель : A-Ha
Продюсер : Not On Label
Кодирование произвёл : Adobe Audition CC 2018
Жанр : New Wave
Дата записи : 1992
Обложка : Yes
Тип обложки : Cover (front)
MIME-тип обложки : image/jpeg
Примечание : rip by Bigbeer/Technics SL-1200MK3D/Audio Technica AT150MLX/Luxman L-510/Proel Die Hard DHG535LU18 /E-MU 1212m PCIe
catalog : "--"
cuesheet : REM GENRE New Wave / REM DATE 1992 / REM COMMENT rip by Bigbeer/Technics SL-1200MK3D/Audio Technica AT150MLX/Luxman L-510/Proel Die Hard DHG535LU18 /E-MU 1212m PCIe / CATALOG '--' / PERFORMER "A-Ha" / TITLE "Headlines And Deadlines - The Hits Of A-Ha Vol.1" / FILE "A-Ha - Headlines And Deadlines - The Hits Of A-Ha Vol.1.flac" WAVE / TRACK 01 AUDIO / TITLE "Take On Me" / INDEX 01 00:00:00 / TRACK 02 AUDIO / TITLE "Cry Wolf" / INDEX 01 03:47:48 / TRACK 03 AUDIO / TITLE "Touchy" / INDEX 01 07:54:14 / TRACK 04 AUDIO / TITLE "You Are The One (Remix)" / INDEX 01 12:31:24 / TRACK 05 AUDIO / TITLE "Manhattan Skyline" / INDEX 01 16:17:54 / TRACK 06 AUDIO / TITLE "The Blood That Moves The Body" / INDEX 01 21:08:08 / TRACK 07 AUDIO / TITLE "Early Morning" / INDEX 01 25:13:25 / TRACK 08 AUDIO / TITLE "Hunting High And Low (Remix)" / INDEX 01 28:12:57
Recorded/Location : NNM-Club.me
Аудио
Формат : FLAC
Формат/Информация : Free Lossless Audio Codec
Продолжительность : 31 м. 58 с.
Вид битрейта : Переменный
Битрейт : 5342 Кбит/сек
Каналы : 2 канала
Расположение каналов : Front: L R
Частота : 192 КГц
Битовая глубина : 24 бит
Размер потока : 1,19 Гбайт (100%)
Библиотека кодирования : libFLAC 1.3.2 (UTC 2017-01-01)
Спектр, Уровень, АЧХ:
Dynamic Range Meter:
foobar2000 1.3.17 / Замер динамического диапазона (DR) 1.1.1
Дата отчёта: 2018-11-07 20:45:58
--------------------------------------------------------------------------------
Анализ: A-Ha / Headlines And Deadlines - The Hits Of A-Ha Vol.1
--------------------------------------------------------------------------------
DR Пики RMS Продолжительность трека
--------------------------------------------------------------------------------
DR13 -0.38 дБ -16.53 дБ 3:48 01-Take On Me
DR13 -0.03 дБ -15.62 дБ 4:07 02-Cry Wolf
DR14 -0.16 дБ -16.88 дБ 4:37 03-Touchy
DR13 -1.54 дБ -15.51 дБ 3:46 04-You Are The One (Remix)
DR13 -0.77 дБ -17.49 дБ 4:50 05-Manhattan Skyline
DR14 -0.25 дБ -16.53 дБ 4:05 06-The Blood That Moves The Body
DR14 -0.20 дБ -15.88 дБ 2:59 07-Early Morning
DR12 -1.31 дБ -16.59 дБ 3:46 08-Hunting High And Low (Remix)
--------------------------------------------------------------------------------
Количество треков: 8
Реальные значения DR: DR13
Частота: 192000 Гц
Каналов: 2
Разрядность: 24
Битрейт: 5342 кбит/с
Кодек: FLAC
================================================================================
Яблоки:
Время раздачи: 24x7
[Профиль] [ЛС]
Показать сообщения:    
Ответить на тему

Текущее время: 19-Ноя 09:03

Часовой пояс: UTC + 3



Вы не можете начинать темы
Вы не можете отвечать на сообщения
Вы не можете редактировать свои сообщения
Вы не можете удалять свои сообщения
Вы не можете голосовать в опросах
Вы не можете прикреплять файлы к сообщениям
Вы не можете скачивать файлы