Сегодня идет свободное скачивание без начисления Download

Потэмаё / Potemayo (Икэхата Такаси) [TV+Special] [12+6 из 12+6] [Полухардсаб] [Jap+Sub] [2007, Комедия, школа, фэнтези, кавай, DVDRip]

Ответить на тему
 
Автор Сообщение

Bot ®

Стаж: 5 лет

Сообщений: 12

Создавать темы 08-Ноя-2018 10:17

[Цитировать]

Потэмаё / Potemayo
Год выпуска: 2007
Страна: Япония
Жанр: Комедия, школа, фентези, кавай
Продолжительность: ТВ (12 x 25 мин) + Спешалы (6 х 12) мин
Перевод: Субтитры
Русские субтитры: есть - внешние
Английские субтитры: есть - встроенные в контейнер
Вьетнамские субтитры: есть (да и такие бывают) - встроенные в контейнер
Режиссер: Икэхата Такаси
Описание: Это что за покемон???
Одним утром, во время завтрака ОЯШ (обычный японский школьник) Сунао находит у себя в холодильнике нечто. Нечто: пушистое, умеет говорить «хони», любит поесть и иногда писается. Сунао называет нечто «potemayo» в честь своего утреннего меню.
Эпизоды
01. (01/02) Potemayo / Invasion! Mysterious Creature!!
02. (03/04) Loving That Kid / Sunday
03. (05/06) Christmas Eve Miracle / It's Suddenly New Year
04. (07/08) Speaking of February, It's the Eve of Spring / Sneezy Morning
05. (09/10) Deep Sleep Remembrance / Spring Storm
06. (11/12) A Wonderful Life / Speaking of Summer, It's Pools
07. (13/14) The End of Summer / Night of the Festival
08. (15/16) Shopping / Winter Has Come
09. (17/18/19) Fluffy and Lumpy Winter / My Home / Super Spa
10. (20/21) Drizzling Rain in the 6th Lunar Month / Time for New Leaves
11. (22/23) A Flower Bud's Feelings / About Mom
12. (24) Flower
Спэшл:
Special 1: When She Was 2000% Bigger (9 мин, 28.09.2007)
Special 2: 30% Gravity Increase (10 мин, 26.10.2007)
Special 3: Inuyama-san's Daily Life (11 мин, 23.11.2007)
Special 4: Shopping Part 2 (8 мин, 21.12.2007)
Special 5: School Festival (11 мин, 25.01.2008)
Special 6 (22.02.2008)
Качество: DVDRip [Flan]
Формат: MKV
Видео кодек: H.264
Аудио кодек: MP3
Видео: 720x480 (анаморф до 853х480) 850 Kbps 23.976 fps 8 bit
Аудио: Стерео 128 Kbps переменный битрейд, 48 КГц
Хардсаб: Караоке песен, (для настоящих отаку) причём перевод песен софтварный.
отчет Media Info
General
Unique ID : 227315506775942573754477489777792805719 (0xAB035FC722FE175983260FBBE3E06B57)
Complete name : ***\[Flan]_Potemayo_01_DVD[720x480_H264_MP3][Vietsub+Engsub][223BE7A4].mkv
Format : Matroska
Format version : Version 1
File size : 165 MiB
Duration : 23mn 40s
Overall bit rate mode : Variable
Overall bit rate : 973 Kbps
Encoded date : UTC 2008-06-05 06:50:31
Writing application : mkvmerge v2.2.0 ('Turn It On Again') built on Mar 4 2008 12:58:26
Writing library : libebml v0.7.7 + libmatroska v0.8.1
Attachements : comic.ttf / UVNBayBuomHep_R.TTF / UVNChimBienNang.TTF / UVNCHUKY.TTF / UVNDaLat_R.TTF / UVNGiayTrang_R.TTF / UVNThoiDai2.TTF / UVNVan_R.TTF
Video
ID : 1
Format : AVC
Format/Info : Advanced Video Codec
Format profile : High@L5.1
Format settings, CABAC : Yes
Format settings, ReFrames : 5 frames
Codec ID : V_MPEG4/ISO/AVC
Duration : 23mn 40s
Bit rate : 850 Kbps
Width : 720 pixels
Height : 480 pixels
Display aspect ratio : 16:9
Original display aspect rat : 3:2
Frame rate mode : Constant
Frame rate : 23.976 fps
Standard : NTSC
Color space : YUV
Chroma subsampling : 4:2:0
Bit depth : 8 bits
Scan type : Progressive
Bits/(Pixel*Frame) : 0.103
Stream size : 142 MiB (86%)
Title : [Flan] Potemayo 01 Video
Writing library : x264 core 58
Encoding settings : cabac=1 / ref=5 / deblock=1:1:2 / analyse=0x3:0x133 / me=umh / subme=5 / me-prepass=0 / brdo=0 / mixed_ref=1 / me_range=16 / chroma_me=1 / trellis=1 / 8x8dct=1 / cqm=0 / deadzone=21,11 / chroma_qp_offset=0 / threads=1 / nr=0 / decimate=0 / mbaff=0 / bframes=3 / b_pyramid=1 / b_adapt=1 / b_bias=0 / direct=1 / wpredb=1 / bime=1 / keyint=250 / keyint_min=25 / scenecut=40 / rc=2pass / bitrate=850 / ratetol=1.0 / rceq='blurCplx^(1-qComp)' / qcomp=1.00 / qpmin=10 / qpmax=51 / qpstep=4 / cplxblur=20.0 / qblur=0.5 / ip_ratio=1.40 / pb_ratio=1.30 / aq=1:0.5:13.0
Language : Japanese
Default : Yes
Forced : No
Audio
ID : 2
Format : MPEG Audio
Format version : Version 1
Format profile : Layer 3
Mode : Joint stereo
Codec ID : A_MPEG/L3
Codec ID/Hint : MP3
Duration : 23mn 40s
Bit rate mode : Variable
Bit rate : 115 Kbps
Nominal bit rate : 128 Kbps
Channel(s) : 2 channels
Sampling rate : 48.0 KHz
Compression mode : Lossy
Stream size : 19.5 MiB (12%)
Title : [Flan] Potemayo 01 Audio
Writing library : LAME3.98a
Encoding settings : -m j -V 4 -q 2 -lowpass 17 --abr 128
Language : Japanese
Default : Yes
Forced : No
Text #1
ID : 3
Format : ASS
Codec ID : S_TEXT/ASS
Codec ID/Info : Advanced Sub Station Alpha
Compression mode : Lossless
Title : [Flan] Potemayo 01 Subtitle
Language : Vietnamese
Default : Yes
Forced : No
Text #2
ID : 4
Format : ASS
Codec ID : S_TEXT/ASS
Codec ID/Info : Advanced Sub Station Alpha
Compression mode : Lossless
Title : [Anonymous] Potemayo 01 Subtitle
Language : English
Default : No
Forced : No
Menu
00:00:00.000 : en:Prologue
00:00:43.043 : en:Opening
00:02:13.008 : en:PART-A
00:09:50.048 : en:PART-B
00:21:54.980 : en:Ending
00:23:25.029 : en:Preview
Отличия от других раздач
0. Это DVD рип! От всех остальных раздач отличается отсутствием 10-ти секундной рекламы и информационных сообщений
Примеры:

0. Это DVD рип! От всех остальных раздач отличается отсутствием 10-ти секундной рекламы и информационных сообщений
от http://realmt.org/viewtopic.php?t=458696
1. Отсутствием хардсаба
2. Наличие Спешиалов
от http://realmt.org/viewtopic.php?t=955342
та раздача HD от двух рипов, соотвественно здесь ниже чёткость картинки, чем в AVC сериях (3-7, 9-12)
вверху сравниваемая раздача, внизу данная




но зато нету артефактов кодировки WMV в остальных сериях
вверху сравниваемая раздача, внизу данная








от http://realmt.org/viewtopic.php?t=1248346
1. Выше качество картинки (преимущественно в тех же сериях - видно плохой источник)
Сравниваемая:

Данная:

1. Отсутствие озвучки
2. Наличие субтитров (русских, английских и вьетнамских)
Скриншоты
[Профиль] [ЛС]
Показать сообщения:    
Ответить на тему

Текущее время: 21-Ноя 05:17

Часовой пояс: UTC + 3



Вы не можете начинать темы
Вы не можете отвечать на сообщения
Вы не можете редактировать свои сообщения
Вы не можете удалять свои сообщения
Вы не можете голосовать в опросах
Вы не можете прикреплять файлы к сообщениям
Вы не можете скачивать файлы