Сегодня идет свободное скачивание без начисления Download

(Classical/Piano) Bruce Levingston - Portraits: Glass, Ravel, Messiaen, Satie - 2006, FLAC (image+.cue), lossless

Ответить на тему
 
Автор Сообщение

Bot ®

Стаж: 3 года 10 месяцев

Сообщений: 12

Создавать темы 08-Ноя-2018 22:02

[Цитировать]

Bruce Levingston - Portraits
Жанр: Classical/Piano
Год выпуска диска: 2006
Производитель диска: Orange Mountain Music, USA
Аудио кодек: FLAC
Тип рипа: image+.cue
Битрейт аудио: lossless
Продолжительность: 1:02'18"
Трэклист:
Philip Glass - A Musical Portrait of Chuck Close
01. Movement I
02. Movement II
Maurice Ravel
03. La vallee des cloches
04. Alborada del gracioso
Olivier Messiaen
05. L'echange
06. Regard de la Vierge
07. L'Alouette Lulu
Erik Satie
08. Sarabande No.2
09. Gnossienne No.4
10. Gymnopedie No.1
Bruce Levingston, piano-
Отчёт ЕАС
Exact Audio Copy V0.99 prebeta 5 from 4. May 2009
Отчёт EAC об извлечении, выполненном 30. августа 2009, 16:56
Bruce Levingston / Portraits
Дисковод: Optiarc DVD RW AD-7203A Adapter: 4 ID: 1
Режим чтения : Достоверность
Использование точного потока : Да
Отключение кэша аудио : Да
Использование указателей C2 : Нет
Коррекция смещения при чтении : 48
Способность читать области Lead-in и Lead-out : Нет
Заполнение пропущенных сэмплов тишиной : Да
Удаление блоков с тишиной в начале и конце : Нет
При вычислениях CRC использовались нулевые сэмплы : Да
Интерфейс : Встроенный Win32-интерфейс для Win NT/2000
Выходной формат : Пользовательский кодировщик
Выбранный битрейт : 128 kBit/s
Качество : Высокий
Добавление ID3-тэга : Нет
Утилита сжатия : C:\Program Files\FLAC\flac.exe
Дополнительные параметры : -5 -V %s
TOC извлечённого CD
Трек | Старт | Длительность | Начальный сектор | Конечный сектор
---------------------------------------------------------------------
1 | 0:00.00 | 4:19.07 | 0 | 19431
2 | 4:19.07 | 7:48.29 | 19432 | 54560
3 | 12:07.36 | 7:02.45 | 54561 | 86255
4 | 19:10.06 | 7:31.14 | 86256 | 120094
5 | 26:41.20 | 4:41.14 | 120095 | 141183
6 | 31:22.34 | 9:10.08 | 141184 | 182441
7 | 40:32.42 | 9:54.53 | 182442 | 227044
8 | 50:27.20 | 5:24.05 | 227045 | 251349
9 | 55:51.25 | 2:34.38 | 251350 | 262937
10 | 58:25.63 | 3:52.48 | 262938 | 280385
Характеристики диапазона извлечения и сообщения об ошибках
Выбранный диапазон
Имя файла D:\EAC\Bruce Levingston - Portraits.wav
Пиковый уровень 100.0 %
Качество диапазона 100.0 %
CRC теста B0B4AF3A
CRC копии B0B4AF3A
Копирование... OK
Ошибок не произошло
AccurateRip: сводка
Трек 1 точное извлечение (доверие 3) [C7E9B810]
Трек 2 точное извлечение (доверие 3) [F8A7C573]
Трек 3 точное извлечение (доверие 3) [7B00C13B]
Трек 4 точное извлечение (доверие 2) [37F05DF5]
Трек 5 точное извлечение (доверие 3) [A76C2C4B]
Трек 6 точное извлечение (доверие 3) [EDF25C0E]
Трек 7 точное извлечение (доверие 3) [F5869AFC]
Трек 8 точное извлечение (доверие 3) [15FD190F]
Трек 9 точное извлечение (доверие 3) [8939D18A]
Трек 10 точное извлечение (доверие 2) [483D9CD7]
Все треки извлечены точно
Конец отчёта
-Доп. информация: Chuck Close (род. 1940) - современный американский художник, один из крупнейших представителей фотореализма.
По профессии учитель, Ч.Клоуз большую часть своей жизни посвятил живописи. Начиная с 60-х годов ХХ столетия, при помощи фотографии, он создаёт свои крупноформатные полотна - на холсте акриловыми красками. К 1980 году им было сделано более 100 работ. В 1969 году картины Ч.Клоуза представлены на биеннале в музее Американского искусства Уитни в Нью-Йорке, в 1970 году состоялась первая персональная выставка художника. В 1973 году его полотна впервые выствлены в нью-йоркском Музее современного искусства.
В 1988 году, в результате повреждения позвоночника, художник оказался парализованным, однако продолжает рисовать.
Удивительно лиричный диск.
-
[Профиль] [ЛС]
Показать сообщения:    
Ответить на тему

Текущее время: 17-Дек 22:20

Часовой пояс: UTC + 3



Вы не можете начинать темы
Вы не можете отвечать на сообщения
Вы не можете редактировать свои сообщения
Вы не можете удалять свои сообщения
Вы не можете голосовать в опросах
Вы не можете прикреплять файлы к сообщениям
Вы не можете скачивать файлы