Сегодня идет свободное скачивание без начисления Download

(Old School Rap) 3rd Bass - The Cactus Album - 1989, FLAC (tracks+.cue), lossless

Ответить на тему
 
Автор Сообщение

Bot ®

Стаж: 2 года 10 месяцев

Сообщений: 12

Создавать темы 08-Ноя-2018 22:32

[Цитировать]

3rd Bass - The Cactus Album
Жанр: Old School Rap
Год выпуска диска: 1989
Производитель диска: USA
Аудио кодек: FLAC
Тип рипа: tracks+.cue
Битрейт аудио: lossless
Продолжительность: 1:05:59
Источник: what.cd
Трэклист:
1. Stymie's Theme (0:13)
2. Sons Of 3rd Bass (4:46)
3. Russell Rush (0:25)
4. The Gas Face (3:49)
5. Monte Hall (5:26)
6. Oval Office (3:32)
7. Hoods (0:17)
8. Soul In The Hole (3:50)
9. Triple Stage Darkness (4:10)
10. M.C. Disagree (0:44)
11. Wordz Of Wizdom (6:31)
12. Product Of The Environment (6:16)
13. Desert Boots (0:21)
14. The Cactus (4:40)
15. Jim Backus (0:04)
16. Flippin' Off The Wall Like Lucy Ball (3:16)
17. Brooklyn-Queens (3:37)
18. Steppin' To The A.M. (4:50)
19. Episode #3 (0:11)
20. Who's On Third (0:59)
21. Wordz Of Wizdom (II) (7:56)
Отчёт EAC
Exact Audio Copy V0.99 prebeta 5 from 4. May 2009
EAC extraction logfile from 5. June 2009, 15:22
3rd Bass / The Cactus Album
Used drive : ATAPI iHAS220 6 Adapter: 1 ID: 1
Read mode : Secure
Utilize accurate stream : Yes
Defeat audio cache : Yes
Make use of C2 pointers : No
Read offset correction : 6
Overread into Lead-In and Lead-Out : No
Fill up missing offset samples with silence : Yes
Delete leading and trailing silent blocks : No
Null samples used in CRC calculations : Yes
Used interface : Native Win32 interface for Win NT & 2000
Gap handling : Appended to previous track
Used output format : User Defined Encoder
Selected bitrate : 320 kBit/s
Quality : High
Add ID3 tag : No
Command line compressor : C:\Program Files\FLAC\flac.exe
Additional command line options : -V -8 -T "artist=%a" -T "title=%t" -T "album=%g" -T "date=%y" -T "tracknumber=%n" -T "genre=%m" %s
TOC of the extracted CD
Track | Start | Length | Start sector | End sector
---------------------------------------------------------
1 | 0:00.00 | 0:13.27 | 0 | 1001
2 | 0:13.27 | 4:46.40 | 1002 | 22491
3 | 4:59.67 | 0:24.70 | 22492 | 24361
4 | 5:24.62 | 3:49.08 | 24362 | 41544
5 | 9:13.70 | 5:26.45 | 41545 | 66039
6 | 14:40.40 | 3:32.52 | 66040 | 81991
7 | 18:13.17 | 0:17.28 | 81992 | 83294
8 | 18:30.45 | 3:49.72 | 83295 | 100541
9 | 22:20.42 | 4:10.35 | 100542 | 119326
10 | 26:31.02 | 0:44.15 | 119327 | 122641
11 | 27:15.17 | 6:31.33 | 122642 | 151999
12 | 33:46.50 | 6:15.70 | 152000 | 180194
13 | 40:02.45 | 0:21.67 | 180195 | 181836
14 | 40:24.37 | 4:40.10 | 181837 | 202846
15 | 45:04.47 | 0:04.00 | 202847 | 203146
16 | 45:08.47 | 3:16.50 | 203147 | 217896
17 | 48:25.22 | 3:37.30 | 217897 | 234201
18 | 52:02.52 | 4:50.23 | 234202 | 255974
19 | 56:53.00 | 0:11.60 | 255975 | 256859
20 | 57:04.60 | 0:59.30 | 256860 | 261314
21 | 58:04.15 | 7:56.12 | 261315 | 297026
Track 1
Filename C:\EACrips\3rd Bass - The Cactus Album [flac]\01 - Stymie's Theme.wav
Pre-gap length 0:00:02.00
Peak level 48.9 %
Track quality 100.0 %
Test CRC 0A183B71
Copy CRC 0A183B71
Accurately ripped (confidence 14) [1E42159B]
Copy OK
Track 2
Filename C:\EACrips\3rd Bass - The Cactus Album [flac]\02 - Sons of 3rd Bass.wav
Peak level 87.4 %
Track quality 99.9 %
Test CRC A533A52C
Copy CRC A533A52C
Accurately ripped (confidence 15) [D2DFC668]
Copy OK
Track 3
Filename C:\EACrips\3rd Bass - The Cactus Album [flac]\03 - Russell Rush.wav
Peak level 80.0 %
Track quality 100.0 %
Test CRC 8DF48F72
Copy CRC 8DF48F72
Accurately ripped (confidence 14) [0B0AB99E]
Copy OK
Track 4
Filename C:\EACrips\3rd Bass - The Cactus Album [flac]\04 - The Gas Face.wav
Peak level 79.1 %
Track quality 99.9 %
Test CRC DF76B345
Copy CRC DF76B345
Accurately ripped (confidence 15) [7654F7E7]
Copy OK
Track 5
Filename C:\EACrips\3rd Bass - The Cactus Album [flac]\05 - Monte Hall.wav
Peak level 92.3 %
Track quality 100.0 %
Test CRC 11B6749E
Copy CRC 11B6749E
Accurately ripped (confidence 15) [2B226C53]
Copy OK
Track 6
Filename C:\EACrips\3rd Bass - The Cactus Album [flac]\06 - Oval Office.wav
Peak level 97.7 %
Track quality 100.0 %
Test CRC 2AB5BB89
Copy CRC 2AB5BB89
Accurately ripped (confidence 15) [E102FC1D]
Copy OK
Track 7
Filename C:\EACrips\3rd Bass - The Cactus Album [flac]\07 - Hoods.wav
Peak level 23.1 %
Track quality 100.0 %
Test CRC 57EB2656
Copy CRC 57EB2656
Accurately ripped (confidence 14) [BCB365B4]
Copy OK
Track 8
Filename C:\EACrips\3rd Bass - The Cactus Album [flac]\08 - Soul in the Hole.wav
Peak level 78.8 %
Track quality 100.0 %
Test CRC 9A6509C8
Copy CRC 9A6509C8
Accurately ripped (confidence 15) [72065B09]
Copy OK
Track 9
Filename C:\EACrips\3rd Bass - The Cactus Album [flac]\09 - Triple Stage Darkness.wav
Pre-gap length 0:00:00.26
Peak level 84.4 %
Track quality 100.0 %
Test CRC 76D962D5
Copy CRC 76D962D5
Accurately ripped (confidence 15) [D0565A83]
Copy OK
Track 10
Filename C:\EACrips\3rd Bass - The Cactus Album [flac]\10 - M.C. Disagree.wav
Pre-gap length 0:00:00.93
Peak level 74.3 %
Track quality 100.0 %
Test CRC A5A06473
Copy CRC A5A06473
Accurately ripped (confidence 14) [1AD27AD1]
Copy OK
Track 11
Filename C:\EACrips\3rd Bass - The Cactus Album [flac]\11 - Wordz of Wizdom.wav
Peak level 90.0 %
Track quality 100.0 %
Test CRC DF929C85
Copy CRC DF929C85
Accurately ripped (confidence 14) [8AF1CC5C]
Copy OK
Track 12
Filename C:\EACrips\3rd Bass - The Cactus Album [flac]\12 - Product of the Environment.wav
Pre-gap length 0:00:01.04
Peak level 97.6 %
Track quality 100.0 %
Test CRC C49BFF11
Copy CRC C49BFF11
Accurately ripped (confidence 15) [7F791C88]
Copy OK
Track 13
Filename C:\EACrips\3rd Bass - The Cactus Album [flac]\13 - Desert Boots.wav
Pre-gap length 0:00:01.00
Peak level 58.7 %
Track quality 99.5 %
Test CRC 2926DA06
Copy CRC 2926DA06
Accurately ripped (confidence 15) [999B6E08]
Copy OK
Track 14
Filename C:\EACrips\3rd Bass - The Cactus Album [flac]\14 - The Cactus.wav
Peak level 69.8 %
Track quality 100.0 %
Test CRC EFAFB6E4
Copy CRC EFAFB6E4
Accurately ripped (confidence 15) [B6F63039]
Copy OK
Track 15
Filename C:\EACrips\3rd Bass - The Cactus Album [flac]\15 - Jim Backus.wav
Peak level 40.8 %
Track quality 97.2 %
Test CRC 0985118B
Copy CRC 0985118B
Track not present in AccurateRip database
Copy OK
Track 16
Filename C:\EACrips\3rd Bass - The Cactus Album [flac]\16 - Flippin' Off the Wall Like Lucy Ball.wav
Peak level 80.4 %
Track quality 100.0 %
Test CRC 64402AD8
Copy CRC 64402AD8
Accurately ripped (confidence 15) [606C1702]
Copy OK
Track 17
Filename C:\EACrips\3rd Bass - The Cactus Album [flac]\17 - Brooklyn-Queens.wav
Peak level 89.9 %
Track quality 100.0 %
Test CRC 13CED8B4
Copy CRC 13CED8B4
Accurately ripped (confidence 15) [5677AD2D]
Copy OK
Track 18
Filename C:\EACrips\3rd Bass - The Cactus Album [flac]\18 - Steppin' to the A.M..wav
Pre-gap length 0:00:01.16
Peak level 92.9 %
Track quality 100.0 %
Test CRC DF17EDE8
Copy CRC DF17EDE8
Accurately ripped (confidence 15) [538A9E15]
Copy OK
Track 19
Filename C:\EACrips\3rd Bass - The Cactus Album [flac]\19 - Episode #3.wav
Peak level 44.7 %
Track quality 100.0 %
Test CRC 345A58DD
Copy CRC 345A58DD
Accurately ripped (confidence 14) [097E8B76]
Copy OK
Track 20
Filename C:\EACrips\3rd Bass - The Cactus Album [flac]\20 - Who's on Third.wav
Peak level 84.6 %
Track quality 100.0 %
Test CRC F2BA57EA
Copy CRC F2BA57EA
Accurately ripped (confidence 14) [13DD1C11]
Copy OK
Track 21
Filename C:\EACrips\3rd Bass - The Cactus Album [flac]\21 - Wordz of Wizdom (II).wav
Peak level 97.7 %
Track quality 99.9 %
Test CRC 81C30D3F
Copy CRC 81C30D3F
Accurately ripped (confidence 12) [1070B4B0]
Copy OK
20 track(s) accurately ripped
1 track(s) not present in the AccurateRip database
Some tracks could not be verified as accurate
No errors occurred
End of status report
Содержание индексной карты (.CUE)
REM GENRE Rap
REM DATE 1989
REM DISCID 040F7815
REM COMMENT "ExactAudioCopy v0.99pb5"
FILE "3rd Bass - The Cactus Album [flac]\01 - Stymie's Theme.wav" WAVE
TRACK 01 AUDIO
INDEX 01 00:00:00
FILE "3rd Bass - The Cactus Album [flac]\02 - Sons of 3rd Bass.wav" WAVE
TRACK 02 AUDIO
INDEX 01 00:00:00
FILE "3rd Bass - The Cactus Album [flac]\03 - Russell Rush.wav" WAVE
TRACK 03 AUDIO
INDEX 01 00:00:00
FILE "3rd Bass - The Cactus Album [flac]\04 - The Gas Face.wav" WAVE
TRACK 04 AUDIO
INDEX 01 00:00:00
FILE "3rd Bass - The Cactus Album [flac]\05 - Monte Hall.wav" WAVE
TRACK 05 AUDIO
INDEX 01 00:00:00
FILE "3rd Bass - The Cactus Album [flac]\06 - Oval Office.wav" WAVE
TRACK 06 AUDIO
INDEX 01 00:00:00
FILE "3rd Bass - The Cactus Album [flac]\07 - Hoods.wav" WAVE
TRACK 07 AUDIO
INDEX 01 00:00:00
FILE "3rd Bass - The Cactus Album [flac]\08 - Soul in the Hole.wav" WAVE
TRACK 08 AUDIO
INDEX 01 00:00:00
TRACK 09 AUDIO
INDEX 00 03:49:52
FILE "3rd Bass - The Cactus Album [flac]\09 - Triple Stage Darkness.wav" WAVE
INDEX 01 00:00:00
TRACK 10 AUDIO
INDEX 00 04:09:40
FILE "3rd Bass - The Cactus Album [flac]\10 - M.C. Disagree.wav" WAVE
INDEX 01 00:00:00
FILE "3rd Bass - The Cactus Album [flac]\11 - Wordz of Wizdom.wav" WAVE
TRACK 11 AUDIO
INDEX 01 00:00:00
TRACK 12 AUDIO
INDEX 00 06:30:30
FILE "3rd Bass - The Cactus Album [flac]\12 - Product of the Environment.wav" WAVE
INDEX 01 00:00:00
TRACK 13 AUDIO
INDEX 00 06:14:70
FILE "3rd Bass - The Cactus Album [flac]\13 - Desert Boots.wav" WAVE
INDEX 01 00:00:00
FILE "3rd Bass - The Cactus Album [flac]\14 - The Cactus.wav" WAVE
TRACK 14 AUDIO
INDEX 01 00:00:00
FILE "3rd Bass - The Cactus Album [flac]\15 - Jim Backus.wav" WAVE
TRACK 15 AUDIO
INDEX 01 00:00:00
FILE "3rd Bass - The Cactus Album [flac]\16 - Flippin' Off the Wall Like Lucy Ball.wav" WAVE
TRACK 16 AUDIO
INDEX 01 00:00:00
FILE "3rd Bass - The Cactus Album [flac]\17 - Brooklyn-Queens.wav" WAVE
TRACK 17 AUDIO
INDEX 01 00:00:00
TRACK 18 AUDIO
INDEX 00 03:36:18
FILE "3rd Bass - The Cactus Album [flac]\18 - Steppin' to the A.M..wav" WAVE
INDEX 01 00:00:00
FILE "3rd Bass - The Cactus Album [flac]\19 - Episode #3.wav" WAVE
TRACK 19 AUDIO
INDEX 01 00:00:00
FILE "3rd Bass - The Cactus Album [flac]\20 - Who's on Third.wav" WAVE
TRACK 20 AUDIO
INDEX 01 00:00:00
FILE "3rd Bass - The Cactus Album [flac]\21 - Wordz of Wizdom (II).wav" WAVE
TRACK 21 AUDIO
INDEX 01 00:00:00
[Профиль] [ЛС]
Показать сообщения:    
Ответить на тему

Текущее время: 19-Ноя 07:09

Часовой пояс: UTC + 3



Вы не можете начинать темы
Вы не можете отвечать на сообщения
Вы не можете редактировать свои сообщения
Вы не можете удалять свои сообщения
Вы не можете голосовать в опросах
Вы не можете прикреплять файлы к сообщениям
Вы не можете скачивать файлы