Сегодня идет свободное скачивание без начисления Download

(Score) The Descent / Спуск (David Julyan) - 2006, WAVPack (image+.cue), lossless

Ответить на тему
 
Автор Сообщение

Bot ®

Стаж: 3 года 10 месяцев

Сообщений: 12

Создавать темы 08-Ноя-2018 22:47

[Цитировать]

The Descent / Спуск (David Julyan)
Жанр: Score
Год выпуска диска: 2006
Аудио кодек: WAVPack
Тип рипа: image+.cue
Битрейт аудио: lossless
Продолжительность: 49:33
Трэклист:
01. Opening
02. White Water Rafting
03. Nightmare in the Hospital
04. Mountains
05. Drive to the Cave
06. Into the Cavern
07. Down the Pipe
08. Tunnel Collapses
09. Crossing the Crevasse
10. Cave Paintings
11. Sarah Sees a Crawler
12. Bone Dam
13. Reunited with Juno
14. Sarah Makes a Torch
15. Sarah Finds Beth
16. Lair
17. Juno Climbs
18. Crawlers Attack
19. Descent
20. Alone
Отчет
Exact Audio Copy V0.99 prebeta 1 from 25. May 2007
EAC extraction logfile from 11. August 2007, 23:57
David Julyan / The Descent
Used drive : PLEXTOR DVDR PX-760A Adapter: 1 ID: 0
Read mode : Secure
Utilize accurate stream : Yes
Defeat audio cache : Yes
Make use of C2 pointers : No
Read offset correction : 30
Overread into Lead-In and Lead-Out : Yes
Fill up missing offset samples with silence : Yes
Delete leading and trailing silent blocks : No
Used interface : Installed external ASPI interface
Used output format : Internal WAV Routines
Sample format : 44.100 Hz; 16 Bit; Stereo
TOC of the extracted CD
Track | Start | Length | Start sector | End sector
---------------------------------------------------------
1 | 0:00.00 | 0:35.67 | 0 | 2691
2 | 0:35.67 | 1:25.08 | 2692 | 9074
3 | 2:01.00 | 0:43.11 | 9075 | 12310
4 | 2:44.11 | 1:54.35 | 12311 | 20895
5 | 4:38.46 | 2:57.34 | 20896 | 34204
6 | 7:36.05 | 1:59.50 | 34205 | 43179
7 | 9:35.55 | 2:54.25 | 43180 | 56254
8 | 12:30.05 | 3:41.66 | 56255 | 72895
9 | 16:11.71 | 4:13.08 | 72896 | 91878
10 | 20:25.04 | 2:33.37 | 91879 | 103390
11 | 22:58.41 | 1:32.15 | 103391 | 110305
12 | 24:30.56 | 5:20.48 | 110306 | 134353
13 | 29:51.29 | 2:00.29 | 134354 | 143382
14 | 31:51.58 | 2:24.12 | 143383 | 154194
15 | 34:15.70 | 2:31.16 | 154195 | 165535
16 | 36:47.11 | 3:15.62 | 165536 | 180222
17 | 40:02.73 | 0:54.35 | 180223 | 184307
18 | 40:57.33 | 2:24.01 | 184308 | 195108
19 | 43:21.34 | 4:54.01 | 195109 | 217159
20 | 48:15.35 | 1:27.06 | 217160 | 223690
Range status and errors
Selected range
Filename E:\EAC\David Julyan - The Descent.wav
Peak level 98.2 %
Range quality 100.0 %
Copy CRC E0CA72F4
Copy OK
No errors occurred
End of status report
Warning: cканы ковриков и буклета весят ~25Мб
-
[Профиль] [ЛС]
Показать сообщения:    
Ответить на тему

Текущее время: 19-Ноя 08:14

Часовой пояс: UTC + 3



Вы не можете начинать темы
Вы не можете отвечать на сообщения
Вы не можете редактировать свои сообщения
Вы не можете удалять свои сообщения
Вы не можете голосовать в опросах
Вы не можете прикреплять файлы к сообщениям
Вы не можете скачивать файлы