Сегодня идет свободное скачивание без начисления Download

(jazz/Big Band) Glenn Miller-The best of the War Years - 2001, FLAC (image+.cue), lossless

Ответить на тему
 
Автор Сообщение

Bot ®

Стаж: 3 года 7 месяцев

Сообщений: 6

Создавать темы 09-Ноя-2018 02:47

[Цитировать]

Glenn Miller-The best of the War Years
Жанр: jazz/Big Band
Год выпуска диска: 2001
Производитель диска: usa(stardust)
Аудио кодек: FLAC
Тип рипа: image+.cue
Битрейт аудио: lossless
Продолжительность: 46:13
Трэклист:

01 - Sunrise Serenade (3:17)
02 - Little Brown Jug (2:57)
03 - Moonlight Serenade (3:23)
04 - In The Mood (3:33)
05 - Tuxedo Junction (3:32)
06 - When You Wish Upon A Star (2:52)
07 - Imagination (2:32)
08 - Pennsylvania 6-5000 (3:14)
09 - Anvil Chorus (3:53)
10 - Chattanooga Choo Choo (2:32)
11 - Elmer's Tune (3:06)
12 - Moonlight Cocktail (3:19)
13 - Don't Sit Under The Apple Tree (With Anyone Else But Me) (3:12)
14 - (I've Got a Gal In) Kalamazoo (2:41)
15 - Serenade in Blue (2:10)
Лог EAC
Exact Audio Copy V0.99 prebeta 4 from 23. January 2008
Отчёт EAC об извлечении, выполненном 22. января 2009, 16:14
Miller, Glenn / Best of the War Years, The
Дисковод: ASUS DRW-2014L1T Adapter: 2 ID: 0
Режим чтения : Достоверность
Использование точного потока : Да
Отключение кэша аудио : Да
Использование указателей C2 : Нет
Коррекция смещения при чтении : 6
Способность читать области Lead-in и Lead-out : Нет
Заполнение пропущенных сэмплов тишиной : Да
Удаление блоков с тишиной в начале и конце : Нет
При вычислениях CRC использовались нулевые сэмплы : Да
Интерфейс : Установленный внешний ASPI-интерфейс
Выходной формат : Пользовательский кодировщик
Выбранный битрейт : 896 kBit/s
Качество : Высокий
Добавление ID3-тэга : Нет
Утилита сжатия : C:\Program Files\Exact Audio Copy\FLAC\FLAC.EXE
Дополнительные параметры : -6 -V -T "ARTIST=%a" -T "TITLE=%t" -T "ALBUM=%g" -T "DATE=%y" -T "TRACKNUMBER=%n" -T "GENRE=%m" -T "COMMENT=%e" %s -o %d
TOC извлечённого CD
Трек | Старт | Длительность | Начальный сектор | Конечный сектор
---------------------------------------------------------------------
1 | 0:00.00 | 3:17.09 | 0 | 14783
2 | 3:17.09 | 2:57.05 | 14784 | 28063
3 | 6:14.14 | 3:22.49 | 28064 | 43262
4 | 9:36.63 | 3:33.18 | 43263 | 59255
5 | 13:10.06 | 3:31.44 | 59256 | 75124
6 | 16:41.50 | 2:52.19 | 75125 | 88043
7 | 19:33.69 | 2:31.54 | 88044 | 99422
8 | 22:05.48 | 3:14.20 | 99423 | 113992
9 | 25:19.68 | 3:53.30 | 113993 | 131497
10 | 29:13.23 | 2:31.64 | 131498 | 142886
11 | 31:45.12 | 3:06.02 | 142887 | 156838
12 | 34:51.14 | 3:18.53 | 156839 | 171741
13 | 38:09.67 | 3:12.29 | 171742 | 186170
14 | 41:22.21 | 2:40.65 | 186171 | 198235
15 | 44:03.11 | 2:10.33 | 198236 | 208018
Характеристики диапазона извлечения и сообщения об ошибках
Выбранный диапазон
Имя файла C:\Новая папка (2)\Glenn Miller War Years\Miller, Glenn - Best of the War Years, The.wav
Пиковый уровень 99.8 %
Качество диапазона 100.0 %
CRC теста A8C9CB76
CRC копии A8C9CB76
Копирование... OK
Ошибок не произошло
AccurateRip: сводка
Трек 1 нет в базе данных
Трек 2 нет в базе данных
Трек 3 нет в базе данных
Трек 4 нет в базе данных
Трек 5 нет в базе данных
Трек 6 нет в базе данных
Трек 7 нет в базе данных
Трек 8 нет в базе данных
Трек 9 нет в базе данных
Трек 10 нет в базе данных
Трек 11 нет в базе данных
Трек 12 нет в базе данных
Трек 13 нет в базе данных
Трек 14 нет в базе данных
Трек 15 нет в базе данных
Ни одного трека нет в базе AccurateRip
Конец отчёта
[Профиль] [ЛС]
Показать сообщения:    
Ответить на тему

Текущее время: 19-Ноя 06:34

Часовой пояс: UTC + 3



Вы не можете начинать темы
Вы не можете отвечать на сообщения
Вы не можете редактировать свои сообщения
Вы не можете удалять свои сообщения
Вы не можете голосовать в опросах
Вы не можете прикреплять файлы к сообщениям
Вы не можете скачивать файлы