Сегодня идет свободное скачивание без начисления Download

Чёрный клановец / BlacKkKlansman (2018) BDRemux [H.264/1080p] [EN / EN, Fr, Sp Sub]

Ответить на тему
 
Автор Сообщение

Bot ®

Стаж: 5 лет 1 месяц

Сообщений: 10

Создавать темы 09-Ноя-2018 02:47

[Цитировать]

Чёрный клановец / BlacKkKlansman (2018) BDRemux [H.264/1080p] [EN / EN, Fr, Sp Sub]
- Производство: США / 40 Acres & A Mule Filmworks, Blumhouse Productions, Legendary Entertainment, Monkeypaw Productions, Perfect World Pictures, QC Entertainment
Жанр: драма, комедия, криминал, биография
Режиссер: Спайк Ли
Актеры: Джон Дэвид Вашингтон, Адам Драйвер, Лора Хэрриер, Тофер Грейс, Яспер Пяякконен, Райан Эгголд, Роберт Джон Бёрк, Николас Туртурро, Кори Хоукинс, Алек Болдуин, Исайя Уитлок мл., Брайан Тарантина
Описание:
Внедриться в Ку-Клукс-Клан - задача не из легких, особенно если ты чернокожий. Но целеустремленного полицейского из Колорадо такие мелочи не смущают. Вместе с напарником-евреем он вступает в неравный бой с опаснейшими противниками.

Возраст: 18+ (зрителям, достигшим 18 лет. запрещено для детей)
Рейтинг MPAA: R (лицам до 17 лет обязательно присутствие взрослого)
Продолжительность: 02:14:49
Качество видео: BDRemux
Перевод: Отсутствует
Язык озвучки: Английский
Субтитры: английские, французские, испанские
Видео: AVC/H.264, 1920x1080 (16:9), 31873 kbps, 23.976 fps, 0.641 bpp
Аудио №1: Atmos / TrueHD MA, 8 ch, 3950 kbps - английский
Аудио №2: AC3, 6 ch, 448 kbps - английский
MediaInfo
General
Unique ID : 237276955617380555970900243217811798433 (0xB281E11FF14E68C0B657841CA2E879A1)
Complete name : BlacKkKlansman.2018.1080p.BluRay.REMUX.AVC.Atmos-[NNM-Club.me].mkv
Format : Matroska
Format version : Version 4 / Version 2
File size : 34.4 GiB
Duration : 2 h 14 min
Overall bit rate mode : Variable
Overall bit rate : 36.5 Mb/s
Encoded date : UTC 2018-11-07 00:24:34
Writing application : mkvmerge v28.2.0 ('The Awakening') 64-bit
Writing library : libebml v1.3.6 + libmatroska v1.4.9
Video
ID : 1
Format : AVC
Format/Info : Advanced Video Codec
Format profile : High@L4.1
Format settings, CABAC : Yes
Format settings, ReFrames : 4 frames
Codec ID : V_MPEG4/ISO/AVC
Duration : 2 h 14 min
Bit rate mode : Variable
Bit rate : 31.9 Mb/s
Maximum bit rate : 35.4 Mb/s
Width : 1 920 pixels
Height : 1 080 pixels
Display aspect ratio : 16:9
Frame rate mode : Constant
Frame rate : 23.976 (24000/1001) FPS
Color space : YUV
Chroma subsampling : 4:2:0
Bit depth : 8 bits
Scan type : Progressive
Bits/(Pixel*Frame) : 0.641
Stream size : 30.0 GiB (87%)
Title : MPEG-4 AVC Video / 31986 kbps / 1080p / 23.976 fps / 16:9 / High Profile 4.1
Language : English
Default : Yes
Forced : No
Audio #1
ID : 2
Format : Atmos / TrueHD
Codec ID : A_TRUEHD
Duration : 2 h 14 min
Bit rate mode : Variable
Bit rate : 3 950 kb/s
Maximum bit rate : 6 804 kb/s
Channel(s) : Object Based / 8 channels
Channel positions : Object Based / Front: L C R, Side: L R, Back: L R, LFE
Sampling rate : / 48.0 kHz
Frame rate : 1 200.000 FPS (40 spf)
Compression mode : Lossless
Stream size : 3.72 GiB (11%)
Title : Dolby Atmos/TrueHD Audio / 7.1-Atmos / 48 kHz / 4398 kbps / 24-bit
Language : English
Default : Yes
Forced : No
Audio #2
ID : 3
Format : AC-3
Format/Info : Audio Coding 3
Mode extension : CM (complete main)
Format settings, Endianness : Big
Codec ID : A_AC3
Duration : 2 h 14 min
Bit rate mode : Constant
Bit rate : 448 kb/s
Channel(s) : 6 channels
Channel positions : Front: L C R, Side: L R, LFE
Sampling rate : 48.0 kHz
Frame rate : 31.250 FPS (1536 spf)
Compression mode : Lossy
Stream size : 432 MiB (1%)
Title : Compatibility Track / Dolby Digital Audio / 5.1 / 48 kHz / 448 kbps
Language : English
Default : No
Forced : No
Text #1
ID : 4
Format : PGS
Codec ID : S_HDMV/PGS
Codec ID/Info : Picture based subtitle format used on BDs/HD-DVDs
Duration : 2 h 8 min
Bit rate : 60.7 kb/s
Count of elements : 5274
Stream size : 55.7 MiB (0%)
Title : SDH
Language : English
Default : No
Forced : No
Text #2
ID : 5
Format : PGS
Codec ID : S_HDMV/PGS
Codec ID/Info : Picture based subtitle format used on BDs/HD-DVDs
Duration : 2 h 13 min
Bit rate : 48.4 kb/s
Count of elements : 4893
Stream size : 46.4 MiB (0%)
Language : French
Default : No
Forced : No
Text #3
ID : 6
Format : PGS
Codec ID : S_HDMV/PGS
Codec ID/Info : Picture based subtitle format used on BDs/HD-DVDs
Duration : 2 h 13 min
Bit rate : 54.2 kb/s
Count of elements : 5310
Stream size : 51.6 MiB (0%)
Title : Latin American
Language : Spanish
Default : No
Forced : No
Menu
00:00:00.000 : en:Chapter 1
00:04:10.250 : en:Chapter 2
00:13:54.876 : en:Chapter 3
00:23:16.604 : en:Chapter 4
00:27:56.508 : en:Chapter 5
00:36:10.668 : en:Chapter 6
00:43:21.557 : en:Chapter 7
00:48:30.616 : en:Chapter 8
00:54:58.629 : en:Chapter 9
00:59:48.543 : en:Chapter 10
01:07:04.771 : en:Chapter 11
01:16:37.802 : en:Chapter 12
01:22:20.394 : en:Chapter 13
01:29:38.123 : en:Chapter 14
01:39:10.653 : en:Chapter 15
01:48:27.042 : en:Chapter 16
01:56:05.584 : en:Chapter 17
02:00:43.945 : en:Chapter 18
02:03:57.430 : en:Chapter 19
02:09:03.569 : en:Chapter 20
Скриншоты:
Все одноименные релизы в КлубеВремя раздачи: с 13:00 до 23:00
[Профиль] [ЛС]
Показать сообщения:    
Ответить на тему

Текущее время: 19-Ноя 08:42

Часовой пояс: UTC + 3



Вы не можете начинать темы
Вы не можете отвечать на сообщения
Вы не можете редактировать свои сообщения
Вы не можете удалять свои сообщения
Вы не можете голосовать в опросах
Вы не можете прикреплять файлы к сообщениям
Вы не можете скачивать файлы