Сегодня идет свободное скачивание без начисления Download

Мотылек / Papillon (2017) BDRemux [H.264/1080p] [EN / EN, Sp Sub]

Ответить на тему
 
Автор Сообщение

Bot ®

Стаж: 3 года 10 месяцев

Сообщений: 15

Создавать темы 09-Ноя-2018 02:47

[Цитировать]

Мотылек / Papillon (2017) BDRemux [H.264/1080p] [EN / EN, Sp Sub]
- Производство: Чехия, Испания, США / Czech Anglo Productions, FishCorb Films, Red Granite Pictures
Жанр: триллер, драма, криминал, детектив
Режиссер: Михаэль Ноер
Актеры: Чарли Ханнэм, Рами Малек, Роланд Мюллер, Йоэль Басман, Йорик ван Вагенинген, Майкл Сока, Кристофер Фэйрбэнк, Ив Хьюсон, Томми Флэнаган, Николас Асбари, Дамиджан Оклопджич, Джейсон Райан
Описание:
Взломщик сейфов по прозвищу Мотылёк получает пожизненный срок и отправляется на каторгу за убийство, которого он не совершал. Когда вокруг враги, а надежда угасает с каждым днём заключения, лишь сила духа может помочь Мотыльку обрести свободу.

Возраст: 18+ (зрителям, достигшим 18 лет. запрещено для детей)
Рейтинг MPAA: R (лицам до 17 лет обязательно присутствие взрослого)
Продолжительность: 02:13:14
Качество видео: BDRemux
Перевод: Отсутствует
Язык озвучки: Английский
Субтитры: английские, испанские
Видео: AVC/H.264, 1920x1080 (16:9), 32468 kbps, 23.976 fps, 0.653 bpp
Аудио: DTS-HD MA, 6 ch, 3643 kbps (Core: 6 ch, 1509 kbps) - английский
MediaInfo
General
Unique ID : 334980168047986404401520970837728079963 (0xFC02D5698F098AF685DE4932B342B05B)
Complete name : Papillon.2017.1080p.BluRay.REMUX.AVC.DTS-HD.MA.5.1-[NNM-Club.me].mkv
Format : Matroska
Format version : Version 4 / Version 2
File size : 33.6 GiB
Duration : 2 h 13 min
Overall bit rate mode : Variable
Overall bit rate : 36.2 Mb/s
Movie name : Papillon (2017)
Encoded date : UTC 2018-11-07 12:12:39
Writing application : mkvmerge v28.2.0 ('The Awakening') 64-bit
Writing library : libebml v1.3.6 + libmatroska v1.4.9
Video
ID : 1
Format : AVC
Format/Info : Advanced Video Codec
Format profile : High@L4.1
Format settings, CABAC : Yes
Format settings, ReFrames : 4 frames
Codec ID : V_MPEG4/ISO/AVC
Duration : 2 h 13 min
Bit rate mode : Variable
Bit rate : 32.5 Mb/s
Maximum bit rate : 35.0 Mb/s
Width : 1 920 pixels
Height : 1 080 pixels
Display aspect ratio : 16:9
Frame rate mode : Constant
Frame rate : 23.976 (24000/1001) FPS
Color space : YUV
Chroma subsampling : 4:2:0
Bit depth : 8 bits
Scan type : Progressive
Bits/(Pixel*Frame) : 0.653
Stream size : 30.2 GiB (90%)
Title : MPEG-4 AVC Video / 32994 kbps / 1080p / 23.976 fps / 16:9 / High Profile 4.1
Language : English
Default : Yes
Forced : No
Audio
ID : 2
Format : DTS
Format/Info : Digital Theater Systems
Format profile : MA / Core
Mode : 16
Format settings, Endianness : Big
Codec ID : A_DTS
Duration : 2 h 13 min
Bit rate mode : Variable / Constant
Bit rate : 3 644 kb/s / 1 509 kb/s
Channel(s) : 6 channels
Channel positions : Front: L C R, Side: L R, LFE
Sampling rate : 48.0 kHz
Frame rate : 93.750 FPS (512 spf)
Bit depth : 24 bits
Compression mode : Lossless / Lossy
Stream size : 3.39 GiB (10%)
Title : DTS-HD Master Audio / 5.1 / 48 kHz / 3644 kbps / 24-bit
Language : English
Default : Yes
Forced : No
Text #1
ID : 3
Format : PGS
Codec ID : S_HDMV/PGS
Codec ID/Info : Picture based subtitle format used on BDs/HD-DVDs
Duration : 2 h 3 min
Bit rate : 23.0 kb/s
Count of elements : 2356
Stream size : 20.3 MiB (0%)
Title : SDH
Language : English
Default : No
Forced : No
Text #2
ID : 4
Format : PGS
Codec ID : S_HDMV/PGS
Codec ID/Info : Picture based subtitle format used on BDs/HD-DVDs
Duration : 2 h 12 min
Bit rate : 16.5 kb/s
Count of elements : 1900
Stream size : 15.7 MiB (0%)
Title : Latin American
Language : Spanish
Default : No
Forced : No
Menu
00:00:00.000 : en:Chapter 1
00:08:16.621 : en:Chapter 2
00:16:47.590 : en:Chapter 3
00:21:25.910 : en:Chapter 4
00:26:31.965 : en:Chapter 5
00:30:39.796 : en:Chapter 6
00:34:10.799 : en:Chapter 7
00:44:51.147 : en:Chapter 8
00:52:54.588 : en:Chapter 9
00:59:03.665 : en:Chapter 10
01:04:12.891 : en:Chapter 11
01:12:18.334 : en:Chapter 12
01:20:35.372 : en:Chapter 13
01:24:08.418 : en:Chapter 14
01:35:19.547 : en:Chapter 15
01:40:53.047 : en:Chapter 16
01:47:10.883 : en:Chapter 17
01:57:03.016 : en:Chapter 18
02:02:58.913 : en:Chapter 19
02:05:57.550 : en:Chapter 20
Скриншоты:
Все одноименные релизы в КлубеВремя раздачи: с 13:00 до 23:00
[Профиль] [ЛС]
Показать сообщения:    
Ответить на тему

Текущее время: 21-Ноя 05:30

Часовой пояс: UTC + 3



Вы не можете начинать темы
Вы не можете отвечать на сообщения
Вы не можете редактировать свои сообщения
Вы не можете удалять свои сообщения
Вы не можете голосовать в опросах
Вы не можете прикреплять файлы к сообщениям
Вы не можете скачивать файлы