Сегодня идет свободное скачивание без начисления Download

Я тебя не люблю (2012) WEB-DLRip [H.264/1080p-LQ]

Ответить на тему
 
Автор Сообщение

Bot ®

Стаж: 4 года 1 месяц

Сообщений: 11

Создавать темы 09-Ноя-2018 02:47

[Цитировать]

Я тебя не люблю (2012) WEB-DLRip [H.264/1080p-LQ]- Производство: Россия | Новый Курс, ProLine Film
Жанр: Драма
Режиссер: Павел Костомаров, Александр Расторгуев
Актеры: Виктория Шевцова, Евгений Борисов, Артем Сотников, Александр Поляев
Описание:
Несколько постельных сцен, снятых домашней камерой. Запись, случайно включенная в разгар выяснения отношений. Скандал, перетекающий в секс, объяснения и истерики. Ревность, разрывы, примирения. Эротический шепот и крики ссор. Домашнее видео с рабочей окраины...
20-летняя Вика живет в маленьком провинциальном городке, как и все девушки, она верит в любовь и надеется однажды ее найти. Каждый свой шаг девушка снимает на камеру, из этих записей мы узнаем, что она уже довольно давно встречается с Артемом. Впрочем, это не мешает Вике отправиться на свидание и с Женей. Некоторое время она будет встречаться и с Женей, и с Артемом, пока наконец не будет готова выбрать, с кем же из них остаться.

Возраст: 16+ (зрителям, достигшим 16 лет)
Дата мировой премьеры: 12 октября 2012
Дата российской премьеры: 7 Июня 2012
Цифровой релиз релиз: 18 июня 2018, «НД Плэй»
Продолжительность: 01:24:53
Качество видео: WEB-DLRip
Видео: AVC/H.264, 1920x1078 (16:9), ~5154 kbps, 25.00 fps
Аудио: AC3, 2 ch, 48.0 kHz, 384 kbps cbr
Mediainfo:
General
Unique ID : 116147993121738834573990791874926125286 (0x57614A2FE5DCC6362D52A426F164A0E6)
Complete name : D:\Я_тебя_не_люблю_WEBDL_1080p.mkv
Format : Matroska
Format version : Version 4
File size : 3.28 GiB
Duration : 1 h 24 min
Overall bit rate : 5 540 kb/s
Movie name : Я.тебя.не.люблю.2014.WEBDL.1080p.iTunes.RUS-ylnian
Encoded date : UTC 2018-11-08 18:05:58
Writing application : mkvmerge v28.0.0 ('Voice In My Head') 64-bit
Writing library : libebml v1.3.6 + libmatroska v1.4.9
Video
ID : 1
Format : AVC
Format/Info : Advanced Video Codec
Format profile : High@L4
Format settings : CABAC / 4 Ref Frames
Format settings, CABAC : Yes
Format settings, ReFrames : 4 frames
Codec ID : V_MPEG4/ISO/AVC
Duration : 1 h 24 min
Bit rate : 5 154 kb/s
Width : 1 920 pixels
Height : 1 078 pixels
Display aspect ratio : 16:9
Frame rate mode : Constant
Frame rate : 25.000 FPS
Color space : YUV
Chroma subsampling : 4:2:0
Bit depth : 8 bits
Scan type : Progressive
Bits/(Pixel*Frame) : 0.100
Stream size : 3.06 GiB (93%)
Language : English
Default : Yes
Forced : No
Color range : Limited
Color primaries : BT.709
Transfer characteristics : BT.709
Matrix coefficients : BT.709
Audio
ID : 2
Format : AC-3
Format/Info : Audio Coding 3
Commercial name : Dolby Digital
Codec ID : A_AC3
Duration : 1 h 24 min
Bit rate mode : Constant
Bit rate : 384 kb/s
Channel(s) : 2 channels
Channel layout : L R
Sampling rate : 48.0 kHz
Frame rate : 31.250 FPS (1536 SPF)
Bit depth : 16 bits
Compression mode : Lossy
Stream size : 233 MiB (7%)
Language : Russian
Service kind : Complete Main
Default : Yes
Forced : No
Menu
00:00:00.000 : ru:1
00:06:46.360 : ru:2
00:12:16.880 : ru:3
00:19:03.160 : ru:4
00:25:40.520 : ru:5
00:31:13.840 : ru:6
00:38:24.760 : ru:7
00:43:31.120 : ru:8
00:49:05.800 : ru:9
00:53:02.680 : ru:10
00:58:41.760 : ru:11
01:03:40.520 : ru:12
01:10:48.560 : ru:13
01:16:06.120 : ru:14
Скриншоты:
Все одноименные релизы в КлубеВремя раздачи: 24/7 (до появления первых 3-5 скачавших)
[Профиль] [ЛС]
Показать сообщения:    
Ответить на тему

Текущее время: 21-Ноя 04:42

Часовой пояс: UTC + 3



Вы не можете начинать темы
Вы не можете отвечать на сообщения
Вы не можете редактировать свои сообщения
Вы не можете удалять свои сообщения
Вы не можете голосовать в опросах
Вы не можете прикреплять файлы к сообщениям
Вы не можете скачивать файлы