Сегодня идет свободное скачивание без начисления Download

Бельканто / Bel Canto (2018) BDRemux [H.264/1080p] [EN / EN Sub]

Ответить на тему
 
Автор Сообщение

Bot ®

Стаж: 5 лет 11 месяцев

Сообщений: 11

Создавать темы 09-Ноя-2018 02:47

[Цитировать]

Бельканто / Bel Canto (2018) BDRemux [H.264/1080p] [EN / EN Sub]
- Производство: США / Priority Pictures, A-Line Pictures, Depth of Field
Жанр: триллер, драма, мелодрама, музыка
Режиссер: Пол Вайц
Актеры: Джулианна Мур, Кэн Ватанабэ, Себастьян Кох, Теноч Уэрта, Рё Касэ, Мария Мерседес Корой, Кристофер Ламберт, Торбьорн Харр, Эльза Зильберштейн, Олек Крупа, Джонни Ортиз, Эдди Мартинес
Описание:
Оперная дива Роксана Косс приезжает в одну из стран Южной Америки, чтобы выступить в посольстве на приеме по случаю визита японского магната. Гости наслаждались великолепным сопрано Роксаны, когда в здание ворвались вооруженные люди во главе с генералом Беньямином. В обмен на 490 жизней они требуют освобождения политических заключенных. Но власти не торопятся выполнять их требования, и ситуация с заложниками затягивается.

Возраст: 16+ (зрителям, достигшим 16 лет)
Продолжительность: 01:40:56
Качество видео: BDRemux
Перевод: Отсутствует
Язык озвучки: Английский
Субтитры: английские
Видео: AVC/H.264, 1920x1080 (16:9), 14166 kbps, 23.976 fps, 0.285 bpp
Аудио: DTS-HD MA, 6 ch, 3363 kbps (Core: 6 ch, 1509 kbps) - английский
MediaInfo
General
Unique ID : 173542816436302037851944341658106048587 (0x828F21744BF5F57DDA802E41C28FB04B)
Complete name : Bel.Canto.2018.REMUX.BluRay.1080p.AVC.DTS-HD.MA5.1-iFT\Bel.Canto.2018.REMUX.BluRay.1080p.AVC.DTS-HD.MA5.1-iFT.mkv
Format : Matroska
Format version : Version 4 / Version 2
File size : 12.4 GiB
Duration : 1 h 40 min
Overall bit rate mode : Variable
Overall bit rate : 17.5 Mb/s
Encoded date : UTC 2018-11-07 17:10:37
Writing application : mkvmerge v28.0.0 ('Voice In My Head') 64-bit
Writing library : libebml v1.3.6 + libmatroska v1.4.9
Video
ID : 1
Format : AVC
Format/Info : Advanced Video Codec
Format profile : High@L4.1
Format settings, CABAC : Yes
Format settings, ReFrames : 3 frames
Format settings, GOP : M=3, N=12
Codec ID : V_MPEG4/ISO/AVC
Duration : 1 h 40 min
Bit rate mode : Variable
Bit rate : 14.2 Mb/s
Maximum bit rate : 35.0 Mb/s
Width : 1 920 pixels
Height : 1 080 pixels
Display aspect ratio : 16:9
Frame rate mode : Constant
Frame rate : 23.976 (24000/1001) FPS
Standard : NTSC
Color space : YUV
Chroma subsampling : 4:2:0
Bit depth : 8 bits
Scan type : Progressive
Bits/(Pixel*Frame) : 0.285
Stream size : 9.99 GiB (81%)
Default : Yes
Forced : No
Color range : Limited
Color primaries : BT.709
Transfer characteristics : BT.709
Matrix coefficients : BT.709
Audio
ID : 2
Format : DTS
Format/Info : Digital Theater Systems
Format profile : MA / Core
Mode : 16
Format settings, Endianness : Big
Codec ID : A_DTS
Duration : 1 h 40 min
Bit rate mode : Variable / Constant
Bit rate : 3 364 kb/s / 1 509 kb/s
Channel(s) : 6 channels
Channel positions : Front: L C R, Side: L R, LFE
Sampling rate : 48.0 kHz
Frame rate : 93.750 FPS (512 spf)
Bit depth : 24 bits
Compression mode : Lossless / Lossy
Stream size : 2.37 GiB (19%)
Language : English
Default : Yes
Forced : No
Text
ID : 3
Format : PGS
Muxing mode : zlib
Codec ID : S_HDMV/PGS
Codec ID/Info : Picture based subtitle format used on BDs/HD-DVDs
Duration : 1 h 35 min
Bit rate : 10.7 kb/s
Count of elements : 2224
Stream size : 7.35 MiB (0%)
Language : English
Default : Yes
Forced : No
Menu
00:00:00.000 : :00:00:00.000
00:08:30.218 : :00:08:30.218
00:20:14.839 : :00:20:14.839
00:27:27.729 : :00:27:27.729
00:35:59.699 : :00:35:59.699
00:42:03.312 : :00:42:03.312
00:52:07.541 : :00:52:07.541
01:01:59.758 : :01:01:59.758
01:13:56.182 : :01:13:56.182
01:18:35.961 : :01:18:35.961
01:26:03.450 : :01:26:03.450
01:34:27.954 : :01:34:27.954
Скриншоты:
Все одноименные релизы в КлубеВремя раздачи: с 13:00 до 23:00
[Профиль] [ЛС]
Показать сообщения:    
Ответить на тему

Текущее время: 19-Ноя 08:00

Часовой пояс: UTC + 3



Вы не можете начинать темы
Вы не можете отвечать на сообщения
Вы не можете редактировать свои сообщения
Вы не можете удалять свои сообщения
Вы не можете голосовать в опросах
Вы не можете прикреплять файлы к сообщениям
Вы не можете скачивать файлы