Сегодня идет свободное скачивание без начисления Download

Сердце мира (2018) WEB-DL [1080p] ATV

Ответить на тему
 
Автор Сообщение

Bot ®

Стаж: 3 года 3 месяца

Сообщений: 10

Создавать темы 09-Ноя-2018 02:47

[Цитировать]

Сердце мира (2018) WEB-DL [1080p] ATV
-
- Производство: Россия, Литва
Жанр: Драма
Продолжительность: 02:04:29
Перевод: (Не требуется)
Субтитры: Нет
Режиссер: Наталия Мещанинова
Актеры: Степан Девонин, Дмитрий Поднозов, Яна Сексте, Витя Оводков, Евгений Сытый, Екатерина Васильева
Мировая премьера: 7 сентября 2018

Описание: Егор работает ветеринаром на одной из тренировочных станций для охотничьих собак где-то в глуши. Лисы, олени, барсуки, собаки — это его жизнь. Живет он в пристройке рядом с домом хозяина. Лечит зверье, чистит клетки, следит за рабочими, встречает клиентов и их собак. С животными ему проще, чем с людьми. Он берется за любую работу, лишь бы стать своим для хозяина станции Николая Ивановича и его близких. Егору хочется почти невозможного — стать частью этой семьи.-Качество: WEB-DL 1080p
Контейнер: M4V
Видео: H.264, 1920x1038, 1.85:1, 5 191 Kbps, 24.000 fps
Аудио 1: Русский/Оригинальная дорожка, AAC LC / 2.0 / 160 Kbps / 48.0 KHz
Аудио 2: Русский/Оригинальная дорожка, AC-3 / 5.1 / 384 Kbps / 48.0 KHz-
iTunes Meta Tags
Код: выделить все
Sort Name: Сердце мира
XID: Apple:vendor_id:2018-1049653
contentID: 1438101972
Copyright: © 2018 All Media Company
Screenwriters: Наталия Мещанинова, Борис Хлебников, Степан Девонин
Producers: Сергей Сельянов, Наталья Дрозд, Дагне Вильджюнайте
Director: Наталия Мещанинова
Cast: Степан Девонин (Егор), Дмитрий Поднозов, Яна Сексте, Витя Оводков, Евгений Сытый, Екатерина Васильева
Studio: Кинокомпания СТВ
Rating: 136
Long Description: Егор работает ветеринаром на одной из тренировочных станций для охотничьих собак где-то в глуши. Лисы, олени, барсуки, собаки — это его жизнь. Живет он в пристройке рядом с домом хозяина. Лечит зверье, чистит клетки, следит за рабочими, встречает клиентов и их собак. С животными ему проще, чем с людьми. Он берется за любую работу, лишь бы стать своим для хозяина станции Николая Ивановича и его близких. Егору хочется почти невозможного — стать частью этой семьи.
Description: Егор работает ветеринаром на одной из тренировочных станций для охотничьих собак где-то в глуши. Лисы, олени, барсуки, собаки — это его жизнь. Живет он в пристройке рядом с домом хозяина. Лечит зверье, чистит клетки, следит за рабочими, встречает клиентов и их собак.
Release Date: 2018-09-27T07:00:00Z
Genre: Drama
Artist: Наталия Мещанинова
Name: Сердце мира
MediaInfo
Код: выделить все
General
Complete name                            : /Users/imac/HandBrake/Serdtse.mira.WEB-DL.1080p.m4v
Format                                   : MPEG-4
Codec ID                                 : M4V  (M4V /M4A /mp42/isom)
File size                                : 4.99 GiB
Duration                                 : 2h 4mn
Overall bit rate mode                    : Variable
Overall bit rate                         : 5 734 Kbps
Movie name                               : Сердце мира
Performer                                : Наталия Мещанинова
Director                                 : Наталия Мещанинова
Actor                                    : Степан Девонин (Егор) / Дмитрий Поднозов / Яна Сексте / Витя Оводков / Евгений Сытый / Екатерина Васильева
Screenplay by                            : Наталия Мещанинова / Борис Хлебников / Степан Девонин
Producer                                 : Сергей Сельянов / Наталья Дрозд / Дагне Вильджюнайте
Production studio                        : Кинокомпания СТВ
Genre                                    : Drama
ContentType                              : Short Film
Description                              : Егор работает ветеринаром на одной из тренировочных станций для охотничьих собак где-то в глуши. Лисы, олени, барсуки, собаки — это его жизнь. Живет он в пристройке рядом с домом хозяина. Лечит зверье, чистит клетки, следит за рабочими, встречает клиентов и их собак.
Recorded date                            : UTC 2018-09-27 07:00:00
Encoded date                             : UTC 2018-11-08 18:09:32
Tagged date                              : UTC 2018-11-08 18:10:29
Copyright                                : © 2018 All Media Company
Cover                                    : Yes
Rating                                   : None
Title/Sort                               : Сердце мира
LongDescription                          : Егор работает ветеринаром на одной из тренировочных станций для охотничьих собак где-то в глуши. Лисы, олени, барсуки, собаки — это его жизнь. Живет он в пристройке рядом с домом хозяина. Лечит зверье, чистит клетки, следит за рабочими, встречает клиентов и их собак. С животными ему проще, чем с людьми. Он берется за любую работу, лишь бы стать своим для хозяина станции Николая Ивановича и его близких. Егору хочется почти невозможного — стать частью этой семьи.
AppleStoreCatalogID                      : 1438101972
Vendor                                   : Apple:vendor_id:2018-1049653
ContentRating                            : ru-movie|18+|400|
Video #1
ID                                       : 1
Format                                   : AVC
Format/Info                              : Advanced Video Codec
Format profile                           : High@L4
Format settings                          : CABAC / 4 Ref Frames
Format settings, CABAC                   : Yes
Format settings, ReFrames                : 4 frames
Codec ID                                 : avc1
Codec ID/Info                            : Advanced Video Coding
Duration                                 : 2h 4mn
Bit rate                                 : 5 191 Kbps
Width                                    : 1 920 pixels
Height                                   : 1 038 pixels
Display aspect ratio                     : 1.85:1
Frame rate mode                          : Variable
Frame rate                               : 24.000 fps
Minimum frame rate                       : 23.810 fps
Maximum frame rate                       : 24.390 fps
Color space                              : YUV
Chroma subsampling                       : 4:2:0
Bit depth                                : 8 bits
Scan type                                : Progressive
Bits/(Pixel*Frame)                       : 0.109
Stream size                              : 4.51 GiB (91%)
Title                                    : Main Program
Language                                 : Russian
Encoded date                             : UTC 2018-11-08 18:09:32
Tagged date                              : UTC 2018-11-08 18:09:42
Color range                              : Limited
Color primaries                          : BT.709
Transfer characteristics                 : BT.709
Matrix coefficients                      : BT.709
Menus                                    : 4,5
Codec configuration box                  : avcC
Video #2
ID                                       : 5
Format                                   : JPEG
Codec ID                                 : jpeg
Duration                                 : 2h 4mn
Bit rate mode                            : Variable
Bit rate                                 : 669 bps
Width                                    : 640 pixels
Height                                   : 346 pixels
Display aspect ratio                     : 1.85:1
Frame rate mode                          : Variable
Frame rate                               : 0.002 fps
Minimum frame rate                       : 0.002 fps
Maximum frame rate                       : 0.004 fps
Color space                              : YUV
Chroma subsampling                       : 4:2:0
Bit depth                                : 8 bits
Compression mode                         : Lossy
Bits/(Pixel*Frame)                       : 1.511
Stream size                              : 694 KiB (0%)
Title                                    : Chapter Images
Language                                 : Russian
Default                                  : No
Encoded date                             : UTC 2018-11-08 18:09:52
Tagged date                              : UTC 2018-11-08 18:09:53
Menu For                                 : 1
ColorSpace_ICC                           : RGB
Audio #1
ID                                       : 2
Format                                   : AAC LC
Format/Info                              : Advanced Audio Codec Low Complexity
Codec ID                                 : mp4a-40-2
Duration                                 : 2h 4mn
Source duration                          : 2h 4mn
Bit rate mode                            : Variable
Bit rate                                 : 152 Kbps
Maximum bit rate                         : 234 Kbps
Channel(s)                               : 2 channels
Channel layout                           : L R
Sampling rate                            : 48.0 KHz
Frame rate                               : 46.875 fps (1024 SPF)
Compression mode                         : Lossy
Stream size                              : 135 MiB (3%)
Source stream size                       : 135 MiB (3%)
Title                                    : Russian Stereo
Language                                 : Russian
Default                                  : Yes
Alternate group                          : 1
Encoded date                             : UTC 2018-11-08 18:09:32
Tagged date                              : UTC 2018-11-08 18:09:44
Fallback From                            : 3
Audio #2
ID                                       : 3
Format                                   : AC-3
Format/Info                              : Audio Coding 3
Commercial name                          : Dolby Digital
Codec ID                                 : ac-3
Duration                                 : 2h 4mn
Bit rate mode                            : Constant
Bit rate                                 : 384 Kbps
Channel(s)                               : 6 channels
Channel layout                           : L R C LFE Ls Rs
Sampling rate                            : 48.0 KHz
Frame rate                               : 31.250 fps (1536 SPF)
Bit depth                                : 16 bits
Compression mode                         : Lossy
Stream size                              : 342 MiB (7%)
Title                                    : Russian DD 5.1
Language                                 : Russian
Service kind                             : Complete Main
Default                                  : Inherited From: 2
Alternate group                          : 1
Encoded date                             : UTC 2018-11-08 18:09:32
Tagged date                              : UTC 2018-11-08 18:09:42
Fallback To                              : 2
Menu #1
00:00:00.000                             : 1
00:07:30.833                             : 2
00:14:18.874                             : 3
00:23:03.332                             : 4
00:31:49.665                             : 5
00:38:50.456                             : 6
00:44:39.914                             : 7
00:49:12.872                             : 8
00:55:12.413                             : 9
01:03:00.788                             : 10
01:12:01.913                             : 11
01:19:25.579                             : 12
01:27:56.537                             : 13
01:35:31.495                             : 14
01:43:31.120                             : 15
01:49:52.911                             : 16
01:55:57.994                             : 17
Menu #2
ID                                       : 4
Codec ID                                 : text
Duration                                 : 2h 4mn
Language                                 : English
Encoded date                             : UTC 2018-11-08 18:09:45
Tagged date                              : UTC 2018-11-08 18:09:45
Menu For                                 : 1
00:00:00.000                             : 1
00:07:30.833                             : 2
00:14:18.874                             : 3
00:23:03.332                             : 4
00:31:49.665                             : 5
00:38:50.456                             : 6
00:44:39.914                             : 7
00:49:12.872                             : 8
00:55:12.413                             : 9
01:03:00.788                             : 10
01:12:01.913                             : 11
01:19:25.579                             : 12
01:27:56.537                             : 13
01:35:31.495                             : 14
01:43:31.120                             : 15
01:49:52.911                             : 16
01:55:57.994                             : 17
Bit rate mode                            : VBR
Скриншоты: Все одноименные релизы в Клубе-

Релиз подготовлен для просмотра на Apple TV, iPad, iPhone, iPod Touch.
Для просмотра данного релиза на компьютере с ОС Windows рекомендуется использовать VLC media player
[Профиль] [ЛС]
Показать сообщения:    
Ответить на тему

Текущее время: 19-Ноя 08:01

Часовой пояс: UTC + 3



Вы не можете начинать темы
Вы не можете отвечать на сообщения
Вы не можете редактировать свои сообщения
Вы не можете удалять свои сообщения
Вы не можете голосовать в опросах
Вы не можете прикреплять файлы к сообщениям
Вы не можете скачивать файлы