Сегодня идет свободное скачивание без начисления Download

Футбол. Лига Чемпионов УЕФА 2018-2019. Группа G. 4-й тур. Виктория (Чехия) — Реал Мадрид (Испания) (07.11.2018) HDTVRip [H.264/720p-LQ] [hand made 50fps]

Ответить на тему
 
Автор Сообщение

Bot ®

Стаж: 3 года 8 месяцев

Сообщений: 10

Создавать темы 09-Ноя-2018 03:02

[Цитировать]

Футбол. Лига Чемпионов УЕФА 2018-2019. Группа G. 4-й тур.
Виктория (Чехия) — Реал Мадрид (Испания) (07.11.2018) HDTVRip [H.264/720p-LQ]

« 2018–2019 UEFA Champions League »
- Телекомпания: Матч! Футбол 1 HD
Жанр: Спорт
Комментатор: Дмитрий Шнякин
Описание: 07 ноября 2018 года, среда. 23:00 МСК
Лига Чемпионов УЕФА 2018-2019. Групповой турнир
Группа G. 4-й тур.
Виктория (Пльзень, Чехия) — Реал (Мадрид, Испания)
Стадион: Дусан Арена - Места Плзне (Пльзень, Чехия), 11483 зрителя (92 % при вместимости 12500)
Главный судья: Дениз Айтекин (Германия)
Ассистенты: Эдуард Байтингер (Германия), Рафаэль Фольтин (Германия)
Резервный: Марко Ахмюллер (Германия)
Релиз от: Striker
Продолжительность: 01:47:50
Качество видео: HDTVRip
Язык озвучки: Русский
Субтитры: отсутствуют
Видео: AVC/H.264, 1280x720 (16:9), ~4000 Kbps, 50 fps
Аудио: AC3, 2 ch, 48 kHz, 192 Kbps
Mediainfo:
Общее
Уникальный идентификатор : 83352588569792381875752049813037602042 (0x3EB51FE78C015AFBC4D325603E6D54FA)
Полное имя : F:\SPORT\Футбол\Лига Чемпионов 2018-2019\ChampionsLeague.2018-19.GroupG.4tour.Viktoria-Real.Madrid.HDTVRip.720p.mkv
Формат : Matroska
Версия формата : Version 4 / Version 2
Размер файла : 3,16 Гбайт
Продолжительность : 1 ч. 47 м.
Общий поток : 4195 Кбит/сек
Название фильма : release for
Программа кодирования : Lavf58.19.100
Библиотека кодирования : Lavf58.19.100
ErrorDetectionType : Per level 1
Видео
Идентификатор : 1
Формат : AVC
Формат/Информация : Advanced Video Codec
Профиль формата : High@L4.1
Настройки формата : CABAC / 4 Ref Frames
Параметр CABAC формата : Да
Параметр RefFrames формата : 4 кадра
Идентификатор кодека : V_MPEG4/ISO/AVC
Продолжительность : 1 ч. 47 м.
Битрейт : 4000 Кбит/сек
Ширина : 1280 пикселей
Высота : 720 пикселей
Соотношение сторон : 16:9
Режим частоты кадров : Переменный
Цветовое пространство : YUV
Субдискретизация насыщенности : 4:2:0
Битовая глубина : 8 бит
Тип развёртки : Прогрессивная
Размер потока : 2,95 Гбайт (93%)
Библиотека кодирования : x264 core 157 r2932 303c484
Настройки программы : cabac=1 / ref=3 / deblock=1:0:0 / analyse=0x3:0x113 / me=hex / subme=7 / psy=1 / psy_rd=1.00:0.00 / mixed_ref=1 / me_range=16 / chroma_me=1 / trellis=1 / 8x8dct=1 / cqm=0 / deadzone=21,11 / fast_pskip=1 / chroma_qp_offset=-2 / threads=12 / lookahead_threads=2 / sliced_threads=0 / nr=0 / decimate=1 / interlaced=0 / bluray_compat=0 / constrained_intra=0 / bframes=3 / b_pyramid=2 / b_adapt=1 / b_bias=0 / direct=1 / weightb=1 / open_gop=0 / weightp=2 / keyint=250 / keyint_min=25 / scenecut=40 / intra_refresh=0 / rc_lookahead=40 / rc=abr / mbtree=1 / bitrate=4000 / ratetol=1.0 / qcomp=0.60 / qpmin=0 / qpmax=69 / qpstep=4 / ip_ratio=1.40 / aq=1:1.00
Default : Да
Forced : Нет
Аудио
Идентификатор : 2
Формат : AC-3
Формат/Информация : Audio Coding 3
Идентификатор кодека : A_AC3
Продолжительность : 1 ч. 47 м.
Вид битрейта : Постоянный
Битрейт : 192 Кбит/сек
Каналы : 2 канала
Расположение каналов : Front: L R
Частота : 48,0 КГц
Частота кадров : 31,250 кадров/сек (1536 SPF)
Битовая глубина : 16 бит
Метод сжатия : С потерями
Размер потока : 148 Мбайт (5%)
Библиотека кодирования : Lavc58.33.100 ac3
Язык : Russian
ServiceKind/String : Complete Main
Default : Да
Forced : Нет
Скриншоты:
Все одноименные релизы в КлубеВремя раздачи: 24/7 (до 1 месяца)
[Профиль] [ЛС]
Показать сообщения:    
Ответить на тему

Текущее время: 21-Ноя 04:43

Часовой пояс: UTC + 3



Вы не можете начинать темы
Вы не можете отвечать на сообщения
Вы не можете редактировать свои сообщения
Вы не можете удалять свои сообщения
Вы не можете голосовать в опросах
Вы не можете прикреплять файлы к сообщениям
Вы не можете скачивать файлы