Сегодня идет свободное скачивание без начисления Download

Рейнджер / The Ranger (2018) WEB-DLRip [MVO] [AD]

Ответить на тему
Статистика раздачи
Размер:  1,32 GB   |    Зарегистрирован:  10 дней   |    Скачан:  0 раз
Сидов:  11  [  0 KB/s  ]   Личеров:  5  [  0 KB/s  ]   Подробная статистика пиров
 
   
 
 
Автор Сообщение

Bot ®

Стаж: 3 года 1 месяц

Сообщений: 14

Создавать темы 09-Ноя-2018 03:02

[Цитировать]

Рейнджер / The Ranger (2018) WEB-DLRip- Производство: США / Glass Eye Pix, Hood River Entertainment
Жанр: Ужасы, триллер
Режиссер: Дженнифер Уэкслер
Актеры: Хлоя Ливайн, Джереми С. Холм, Гранит Лаху, Джереми Пауп, Бабба Уейлер, Аманда Грэйс Купер, Жете Лоранс, Ларри Фессенден, Клэй МакЛеод Чэпман, Джим Джонсон
Описание:
Скрываясь от полиции, группа подростков-панков приезжает в полузаброшенный дом в диком заповеднике. Однако, планы ребят ломает смотритель заповедника - мрачный и суровый рейнджер, полный решимости изгнать нежелательные элементы со своей территории.

Дата мировой премьеры: 17 августа 2018
Продолжительность: 01:20:06
Качество видео: WEB-DLRip
Перевод: Многоголосый закадровый, профессиональный (Синема УС)
Субтитры: Отсутствуют
Реклама: Присутствуют вставки текстовой рекламы
Видео: XviD, 720x384, ~1968 Kbps
Аудио: AC-3, 2 ch, 384 Kbps
MediaInfo:
Общее
Полное имя : E:\NNM\Рейнджер\The Ranger 2018 WEB-DLRip.avi
Формат : AVI
Формат/Информация : Audio Video Interleave
Профиль формата : OpenDML
Размер файла : 1,32 Гбайт
Продолжительность : 1 ч. 20 м.
Общий поток : 2365 Кбит/сек
Видео
Идентификатор : 0
Формат : MPEG-4 Visual
Профиль формата : Advanced Simple@L5
Настройки формата : BVOP2 / Custom Matrix
Параметр BVOP формата : 2
Параметр QPel формата : Нет
Параметр GMC формата : Без точки перехода
Параметр матрицы формата : Выборочная
Идентификатор кодека : XVID
Идентификатор кодека/Подсказка : XviD
Продолжительность : 1 ч. 20 м.
Битрейт : 1968 Кбит/сек
Ширина : 720 пикселей
Высота : 384 пикселя
Соотношение сторон : 1,85:1
Частота кадров : 23,976 (24000/1001) кадра/сек
Цветовое пространство : YUV
Субдискретизация насыщенности : 4:2:0
Битовая глубина : 8 бит
Тип развёртки : Прогрессивная
Метод сжатия : С потерями
Бит/(Пиксели*Кадры) : 0.297
Размер потока : 1,10 Гбайт (83%)
Библиотека кодирования : XviD 1.2.1 (UTC 2008-12-04)
Аудио
Идентификатор : 1
Формат : AC-3
Формат/Информация : Audio Coding 3
Идентификатор кодека : 2000
Продолжительность : 1 ч. 20 м.
Вид битрейта : Постоянный
Битрейт : 384 Кбит/сек
Каналы : 2 канала
Расположение каналов : Front: L R
Частота : 48,0 КГц
Частота кадров : 31,250 кадров/сек (1536 SPF)
Битовая глубина : 16 бит
Метод сжатия : С потерями
Размер потока : 220 Мбайт (16%)
Выравнивание : Соединение по промежуткам
Продолжительность промежутка : 32 мс. (0,77 видеокадр)
ServiceKind/String : Complete Main
Скриншоты: Все одноименные релизы в КлубеВремя раздачи: 24/7 (до появления первых 3-5 скачавших)
[realmt.org].t1149488.torrent 
Торрент: Зарегистрирован [ 2018-11-09 03:02 ] · 1BCCE69B747871C490CA11A3A70022DBA5CFBB7C

Скачать .torrent

Скачать

14 KB

Статус: проверено
Скачан: 0 раз
Размер: 1,32 GB
terms.php
Последние поблагодарившие
[Профиль] [ЛС]
Быстрый ответ

Имя:

      
Для отправки сообщений необходимо включить JavaScript
Показать сообщения:    
Ответить на тему

Текущее время: 19-Ноя 08:01

Часовой пояс: UTC + 3



Вы можете начинать темы
Вы можете отвечать на сообщения
Вы не можете редактировать свои сообщения
Вы не можете удалять свои сообщения
Вы не можете голосовать в опросах
Вы не можете прикреплять файлы к сообщениям
Вы можете скачивать файлы