Сегодня идет свободное скачивание без начисления Download

Чудесный призрак / Wondeopul goseuteu (2018) WEB-DLRip [MVO] [AD]

Ответить на тему
Статистика раздачи
Размер:  1,33 GB   |    Зарегистрирован:  12 дней   |    Скачан:  0 раз
Сидов:  24  [  0 KB/s  ]   Личеров:  4  [  0 KB/s  ]   Подробная статистика пиров
 
   
 
 
Автор Сообщение

Bot ®

Стаж: 3 года 2 месяца

Сообщений: 6

Создавать темы 09-Ноя-2018 03:02

[Цитировать]

Чудесный призрак / Wondeopul goseuteu (2018) WEB-DLRip- Производство: Корея Южная / Daydream Entertainment
Жанр: Комедия, детектив, криминал, фэнтези
Режиссер: Чо Вон-хи
Актеры: Ма Дон-сок, Ким Ён-гван, Ли Ю-ён, Чхве Гви-хва, Чу Джин-мо, Чхве Ю-ри, Ким А-ра, Хо Джэ-хо, Ко Гю-пхиль, Е Джон-хва
Описание:
Преследуя преступников, патрульный офицер Тхэ-джин попадает в аварию, и его душа отделяется от тела. Страж закона очень хочет завершить расследование и вернуться к своей подружке, но теперь он — всего лишь бесплотный блуждающий призрак. Судьба посылает бедолаге шанс в виде равнодушного к правосудию соседа, хозяина секции по дзюдо. Тот может видеть призрака, разговаривать с ним, и теперь Тхэ-джин не отцепится от нового знакомого, пока тот не поможет ему завершить начатое.

Дата мировой премьеры: 26 сентября 2018
Продолжительность: 01:36:26
Качество видео: WEB-DLRip
Перевод: Многоголосый закадровый, любительский (КОЛОБОК)
Субтитры: Отсутствуют
Реклама: Присутствуют вставки текстовой рекламы
Видео: XviD, 720x384, ~1583 Kbps
Аудио : AC-3, 2 ch, 384 Kbps
MediaInfo:
Общее
Полное имя : C:\_\Чудесный призрак\Wondeopul goseuteu 2018 WEB-DLRip.avi
Формат : AVI
Формат/Информация : Audio Video Interleave
Профиль формата : OpenDML
Размер файла : 1,33 Гбайт
Продолжительность : 1 ч. 36 м.
Общий поток : 1980 Кбит/сек
Видео
Идентификатор : 0
Формат : MPEG-4 Visual
Профиль формата : Advanced Simple@L5
Параметр BVOP формата : 2
Параметр QPel формата : Нет
Параметр GMC формата : Без точки перехода
Параметр матрицы формата : Default (H.263)
Идентификатор кодека : XVID
Идентификатор кодека/Подсказка : XviD
Продолжительность : 1 ч. 36 м.
Битрейт : 1583 Кбит/сек
Ширина : 720 пикселей
Высота : 384 пикселя
Соотношение сторон : 1,85:1
Частота кадров : 23,976 (24000/1001) кадра/сек
Цветовое пространство : YUV
Субдискретизация насыщенности : 4:2:0
Битовая глубина : 4 бит
Тип развёртки : Прогрессивная
Метод сжатия : С потерями
Бит/(Пиксели*Кадры) : 0.239
Размер потока : 1,07 Гбайт (80%)
Библиотека кодирования : XviD 1.2.1 (UTC 2008-12-04)
Аудио
Идентификатор : 1
Формат : AC-3
Формат/Информация : Audio Coding 3
Расширение режима : CM (complete main)
Параметр Endianness формата : Big
Идентификатор кодека : 2000
Продолжительность : 1 ч. 36 м.
Вид битрейта : Постоянный
Битрейт : 384 Кбит/сек
Каналы : 2 канала
Расположение каналов : Front: L R
Частота : 48,0 КГц
Частота кадров : 31,250 кадров/сек (1536 spf)
Метод сжатия : С потерями
Размер потока : 265 Мбайт (19%)
Выравнивание : Соединение по промежуткам
Продолжительность промежутка : 32 мс. (0,77 видеокадр)
Скриншоты: Все одноименные релизы в КлубеВремя раздачи: 24/7 (до появления первых 3-5 скачавших)
[realmt.org].t1149489.torrent 
Торрент: Зарегистрирован [ 2018-11-09 03:02 ] · FE6C7BE5665075436BD35FEF5256A567E1ED05FE

Скачать .torrent

Скачать

14 KB

Статус: проверено
Скачан: 0 раз
Размер: 1,33 GB
terms.php
Последние поблагодарившие
[Профиль] [ЛС]
Быстрый ответ

Имя:

      
Для отправки сообщений необходимо включить JavaScript
Показать сообщения:    
Ответить на тему

Текущее время: 21-Ноя 04:44

Часовой пояс: UTC + 3



Вы можете начинать темы
Вы можете отвечать на сообщения
Вы не можете редактировать свои сообщения
Вы не можете удалять свои сообщения
Вы не можете голосовать в опросах
Вы не можете прикреплять файлы к сообщениям
Вы можете скачивать файлы