Сегодня идет свободное скачивание без начисления Download

Я без ума от тебя / Falling for You (2018) HDTVRip [MVO] [AD]

Ответить на тему
Статистика раздачи
Размер:  1,34 GB   |    Зарегистрирован:  10 дней   |    Скачан:  0 раз
Сидов:  17  [  0 KB/s  ]   Личеров:  3  [  0 KB/s  ]   Подробная статистика пиров
 
   
 
 
Автор Сообщение

Bot ®

Стаж: 3 года 8 месяцев

Сообщений: 10

Создавать темы 09-Ноя-2018 03:02

[Цитировать]

Я без ума от тебя / Falling for You (2018) HDTVRip- Производство: США / The Hallmark Channel
Жанр: Мелодрама
Режиссер: Питер ДеЛуис
Актеры: Тейлор Коул, Тайлер Хайнс, Лини Эванс, Элисон Вандзура, Брэнди Александр ...
Описание:
Радиоведущая Лейси устраивает конкурс выпечки для холостяков, чтобы собрать деньги на спасение радиостанции. Когда звездный холостяк отказывается принимать участие, она обращается за помощью к бизнесмену и программисту Заку, который совершенно ничего не смыслит в готовке.

Дата мировой премьеры: 6 октября 2018
Продолжительность: 01:23:39
Качество видео: HDTVRip
Перевод: Многоголосый закадровый, профессиональный (Синема УС)
Субтитры: Отсутствуют
Реклама: Присутствуют вставки текстовой рекламы
Видео: XviD, 720x400, ~1895 Kbps
Аудио : AC-3, 2 ch, 384 Kbps
MediaInfo:
Общее
Полное имя : C:\_\Я без ума от тебя\Falling for you 2018 HDTVRip.avi
Формат : AVI
Формат/Информация : Audio Video Interleave
Профиль формата : OpenDML
Размер файла : 1,34 Гбайт
Продолжительность : 1 ч. 23 м.
Общий поток : 2291 Кбит/сек
Видео
Идентификатор : 0
Формат : MPEG-4 Visual
Профиль формата : Advanced Simple@L5
Параметр BVOP формата : 2
Параметр QPel формата : Нет
Параметр GMC формата : Без точки перехода
Параметр матрицы формата : Выборочная
Идентификатор кодека : XVID
Идентификатор кодека/Подсказка : XviD
Продолжительность : 1 ч. 23 м.
Битрейт : 1895 Кбит/сек
Ширина : 720 пикселей
Высота : 400 пикселей
Соотношение сторон : 16:9
Частота кадров : 23,976 (24000/1001) кадра/сек
Цветовое пространство : YUV
Субдискретизация насыщенности : 4:2:0
Битовая глубина : 8 бит
Тип развёртки : Прогрессивная
Метод сжатия : С потерями
Бит/(Пиксели*Кадры) : 0.274
Размер потока : 1,11 Гбайт (83%)
Библиотека кодирования : XviD 1.2.1 (UTC 2008-12-04)
Аудио
Идентификатор : 1
Формат : AC-3
Формат/Информация : Audio Coding 3
Расширение режима : CM (complete main)
Параметр Endianness формата : Big
Идентификатор кодека : 2000
Продолжительность : 1 ч. 23 м.
Вид битрейта : Постоянный
Битрейт : 384 Кбит/сек
Каналы : 2 канала
Расположение каналов : Front: L R
Частота : 48,0 КГц
Частота кадров : 31,250 кадров/сек (1536 spf)
Метод сжатия : С потерями
Размер потока : 230 Мбайт (17%)
Выравнивание : Соединение по промежуткам
Продолжительность промежутка : 32 мс. (0,77 видеокадр)
Скриншоты: Все одноименные релизы в КлубеВремя раздачи: 24/7 (до появления первых 3-5 скачавших)
[realmt.org].t1149491.torrent 
Торрент: Зарегистрирован [ 2018-11-09 03:02 ] · 36D6C859C65F62C2A7BE39FF55C90DA8160A0657

Скачать .torrent

Скачать

14 KB

Статус: проверено
Скачан: 0 раз
Размер: 1,34 GB
terms.php
Последние поблагодарившие
[Профиль] [ЛС]
Быстрый ответ

Имя:

      
Для отправки сообщений необходимо включить JavaScript
Показать сообщения:    
Ответить на тему

Текущее время: 19-Ноя 08:39

Часовой пояс: UTC + 3



Вы можете начинать темы
Вы можете отвечать на сообщения
Вы не можете редактировать свои сообщения
Вы не можете удалять свои сообщения
Вы не можете голосовать в опросах
Вы не можете прикреплять файлы к сообщениям
Вы можете скачивать файлы