Сегодня идет свободное скачивание без начисления Download

Родовые проклятья / Cursed Bloodlines (2017) HDTVRip [H.264/1080p-LQ] (Серии 1-2 из 8) (Обновляемая)

Ответить на тему
 
Автор Сообщение

Bot ®

Стаж: 4 года 7 месяцев

Сообщений: 12

Создавать темы 09-Ноя-2018 03:02

[Цитировать]

Родовые проклятья / Cursed Bloodlines (2017) HDTVRip [H.264/1080p-LQ] (Серии 1-2 из 8) - Производство: Канада, Mobius Productions
Жанр: Документальный, история
Продюсер: Джессика Ватсон
Описание:
От существовавших сотни лет монарших семей до миллиардеров и их кланов, сериал рассказывает о трагической судьбе реально существовавших семей.
Продолжительность: серии x ~00:22:00
Качество видео: HDTVRip
Перевод: Одноголосый закадровый, профессиональный (SDI Media)
Субтитры: отсутствуют
Видео: AVC/H.264, 1920x1080, ~4000 Kbps (текст читал: Кирилл Дмитриев)
Аудио: AAC, 2 ch, 192 Kbps
Mediainfo:
Общее
Уникальный идентификатор : 235772852509660900123972838417914541590 (0xB160331DB78BF3A27EDF968877323616)
Полное имя : F:\КИНО\Родовые проклятья 1080 (2017)\02 Родовые проклятья.mkv
Формат : Matroska
Версия формата : Version 4
Размер файла : 690 Мбайт
Продолжительность : 22 м. 36 с.
Режим общего битрейта : Переменный
Общий поток : 4269 Кбит/сек
Дата кодирования : UTC 2018-11-08 19:26:10
Программа кодирования : mkvmerge v28.1.0 ('Morning Child') 64-bit
Библиотека кодирования : libebml v1.3.6 + libmatroska v1.4.9
Видео
Идентификатор : 1
Формат : AVC
Формат/Информация : Advanced Video Codec
Профиль формата : High@L4
Настройки формата : CABAC / 4 Ref Frames
Параметр CABAC формата : Да
Параметр RefFrames формата : 4 кадра
Идентификатор кодека : V_MPEG4/ISO/AVC
Продолжительность : 22 м. 36 с.
Вид битрейта : Переменный
Битрейт : 4077 Кбит/сек
Максимальный битрейт : 4500 Кбит/сек
Ширина : 1920 пикселей
Высота : 1080 пикселей
Соотношение сторон : 16:9
Режим частоты кадров : Постоянный
Частота кадров : 25,000 кадров/сек
Цветовое пространство : YUV
Субдискретизация насыщенности : 4:2:0
Битовая глубина : 8 бит
Тип развёртки : Прогрессивная
Бит/(Пиксели*Кадры) : 0.079
Размер потока : 659 Мбайт (96%)
Default : Нет
Forced : Нет
Аудио
Идентификатор : 2
Формат : AAC LC
Формат/Информация : Advanced Audio Codec Low Complexity
Идентификатор кодека : A_AAC-2
Продолжительность : 22 м. 36 с.
Битрейт : 192 Кбит/сек
Каналы : 2 канала
Channel layout : L R
Частота : 48,0 КГц
Частота кадров : 46,875 кадров/сек (1024 SPF)
Метод сжатия : С потерями
Размер потока : 30,6 Мбайт (4%)
Язык : Russian
Default : Да
Forced : Нет
Содержание:
1-я серия
Ни одна семья в ХХ веке не добилась такого высокого статуса, как семейство Кеннеди. Но несмотря на все успехи, казалось, их преследовали трагические и странные события.
2-я серия
Семейство Гримальди достойно занимало пост правителей Монако, но при этом им всё время не везло в любви.
Скриншоты:
Все одноименные релизы в КлубеВремя раздачи: с 18:00 до 23:00 (до появления первых 3-5 скачавших)
[Профиль] [ЛС]
Показать сообщения:    
Ответить на тему

Текущее время: 19-Ноя 08:40

Часовой пояс: UTC + 3



Вы не можете начинать темы
Вы не можете отвечать на сообщения
Вы не можете редактировать свои сообщения
Вы не можете удалять свои сообщения
Вы не можете голосовать в опросах
Вы не можете прикреплять файлы к сообщениям
Вы не можете скачивать файлы