Сегодня идет свободное скачивание без начисления Download

Футбол. Лига Чемпионов УЕФА 2018-2019. Групповой этап. 4-й тур. Обзор матчей. 2-й День (07.11.2018) IPTVRip [H.264/720p-LQ] [hand made 50fps]

Ответить на тему
 
Автор Сообщение

Bot ®

Стаж: 2 года 7 месяцев

Сообщений: 15

Создавать темы 09-Ноя-2018 03:02

[Цитировать]

Футбол. Лига Чемпионов УЕФА 2018-2019. Групповой этап. 4-й тур.
Обзор матчей. 2-й День (07.11.2018) IPTVRip [H.264/720p-LQ]

« 2018–2019 UEFA Champions League »
- Телекомпания: Матч! Футбол 1 HD
Жанр: Спорт
Комментатор: Игорь Кытманов
Описание: 07 ноября 2018 года, среда.
Обзор матчей Лиги Чемпионов УЕФА 2017-2018. Групповой этап. 4-й тур
2-й День:
Группа G — ЦСКА (Россия) – Рома (Италия)
Группа H — Валенсия (Испания) – Янг Бойз (Швейцария)
Группа E — Бавария (Германия) – АЕК Афины (Греция)
Группа E — Бенфика (Португалия) – Аякс (Нидерланды)
Группа F — Лион (Франция) – Хоффенхайм (Германия)
Группа F — Манчестер Сити (Англия) – Шахтёр Д (Украина)
Группа G — Виктория Пльзень (Чехия) – Реал Мадрид (Испания)
Группа H — Ювентус (Италия) – Манчестер Юнайтед (Англия)
Релиз от: Вайделот
Продолжительность: 00:30:05
Качество видео: IPTVRip
Язык озвучки: Русский
Субтитры: отсутствуют
Видео: AVC/H.264, 1280x720 (16:9), ~3679 Kbps, 50 fps
Аудио: AC3, 2 ch, 48 kHz, 128 Kbps
Mediainfo:
Общее
Уникальный идентификатор : 51947045183899025396300988666765201971 (0x2714A31165B166E8AFA184342B455233)
Полное имя : F:\SPORT\Футбол\Лига Чемпионов 2018-2019\ЛЧ 2018-19. 4 тур. 2 день. Обзор (07.11.2018) IPTVRip 720p [by Vaidelot].mkv
Формат : Matroska
Версия формата : Version 4 / Version 2
Размер файла : 836 Мбайт
Продолжительность : 30 м. 5 с.
Общий поток : 3885 Кбит/сек
Программа кодирования : XviD4PSP 7.0.458 DAILY
Библиотека кодирования : Lavf57.71.100
ErrorDetectionType : Per level 1
ENCODING_INFO : MATROSKA,WEBM > MKV 720p / H264 > X264 CBR 4000kbps HQ / AAC-LC > AC3 CBR 128kbps
Видео
Идентификатор : 1
Формат : AVC
Формат/Информация : Advanced Video Codec
Профиль формата : High@L3.2
Настройки формата : CABAC / 4 Ref Frames
Параметр CABAC формата : Да
Параметр RefFrames формата : 4 кадра
Идентификатор кодека : V_MPEG4/ISO/AVC
Продолжительность : 30 м. 5 с.
Битрейт : 3679 Кбит/сек
Номинальный битрейт : 4000 Кбит/сек
Ширина : 1280 пикселей
Высота : 720 пикселей
Соотношение сторон : 16:9
Режим частоты кадров : Постоянный
Частота кадров : 50,000 кадров/сек
Цветовое пространство : YUV
Субдискретизация насыщенности : 4:2:0
Битовая глубина : 8 бит
Тип развёртки : Прогрессивная
Бит/(Пиксели*Кадры) : 0.080
Размер потока : 792 Мбайт (95%)
Библиотека кодирования : x264 core 157 r2901M 7d0ff22
Настройки программы : cabac=1 / ref=3 / deblock=1:-2:-2 / analyse=0x3:0x133 / me=hex / subme=7 / psy=1 / psy_rd=1.00:0.20 / mixed_ref=1 / me_range=16 / chroma_me=1 / trellis=1 / 8x8dct=1 / cqm=0 / deadzone=21,11 / fast_pskip=1 / chroma_qp_offset=-3 / threads=5 / lookahead_threads=1 / sliced_threads=0 / nr=0 / decimate=1 / interlaced=0 / bluray_compat=0 / constrained_intra=0 / bframes=3 / b_pyramid=2 / b_adapt=2 / b_bias=0 / direct=3 / weightb=1 / open_gop=0 / weightp=2 / keyint=500 / keyint_min=50 / scenecut=40 / intra_refresh=0 / rc_lookahead=40 / rc=cbr / mbtree=1 / bitrate=4000 / ratetol=1.0 / qcomp=0.60 / qpmin=0 / qpmax=69 / qpstep=4 / vbv_maxrate=4000 / vbv_bufsize=2857 / nal_hrd=none / filler=0 / ip_ratio=1.40 / aq=1:1.00
Default : Да
Forced : Нет
Цветовой диапазон : Limited
Основные цвета : BT.709
Характеристики трансфера : BT.709
Коэффициенты матрицы : BT.709
Аудио
Идентификатор : 2
Формат : AC-3
Формат/Информация : Audio Coding 3
Идентификатор кодека : A_AC3
Продолжительность : 30 м. 5 с.
Вид битрейта : Постоянный
Битрейт : 128 Кбит/сек
Каналы : 2 канала
Расположение каналов : Front: L R
Частота : 48,0 КГц
Частота кадров : 31,250 кадров/сек (1536 SPF)
Битовая глубина : 16 бит
Метод сжатия : С потерями
Размер потока : 27,5 Мбайт (3%)
ServiceKind/String : Complete Main
Default : Да
Forced : Нет
Скриншоты:
Все одноименные релизы в КлубеВремя раздачи: 24/7 (до 1 месяца)
[Профиль] [ЛС]
Показать сообщения:    
Ответить на тему

Текущее время: 19-Ноя 06:39

Часовой пояс: UTC + 3



Вы не можете начинать темы
Вы не можете отвечать на сообщения
Вы не можете редактировать свои сообщения
Вы не можете удалять свои сообщения
Вы не можете голосовать в опросах
Вы не можете прикреплять файлы к сообщениям
Вы не можете скачивать файлы