Сегодня идет свободное скачивание без начисления Download

(Ambient) Amir Baghiri - Planet X - 2006, FLAC (tracks+.cue), lossless

Ответить на тему
 
Автор Сообщение

Bot ®

Стаж: 3 года 7 месяцев

Сообщений: 11

Создавать темы 09-Ноя-2018 04:02

[Цитировать]

Amir Baghiri - Planet X
Label: Bluebox (2)
Catalog#: BB002
Format: CD, Album
Country: Netherlands
Released: 2006
Genre: Electronic
Style: Ambient
Credits: Composed By, Producer, Synthesizer, Guitar, Wind Chimes, Shaker, Drums [Ocean Drums], Effects [Stones, Water, Nature Sounds], Voice, Programmed By - Amir Baghiri
Edited By, Mastered By - Amir Baghiri , Jeremy Arenberg
Photography - Joke Goederond
Notes: Nature sounds recorded at the Waldkirch-Schwarzwald, Germany 2003.
Composed, performed and produced in 2003-2005.
Mastered at Ambience 1, Bielefeld.
Продолжительность: 77min
Tracklisting:
1 Oort Cloud (9:29)
2 Planet X (6:36)
3 Halley (7:56)
4 Varuna (5:10)
5 Acheron (9:10)
6 Quaoar (20:56)
7 Callisto (2:36)
8 Sedna (7:19)
9 Triton (7:29)
Сертефекатъ соотвецтвiя
Exact Audio Copy V0.99 prebeta 4 from 23. January 2008
EAC extraction logfile from 4. April 2009, 18:18
Amir Baghiri / Planet X
Used drive : _NEC DVD_RW ND-3500AG Adapter: 0 ID: 0
Read mode : Secure
Utilize accurate stream : Yes
Defeat audio cache : Yes
Make use of C2 pointers : No
Read offset correction : 48
Overread into Lead-In and Lead-Out : No
Fill up missing offset samples with silence : Yes
Delete leading and trailing silent blocks : No
Null samples used in CRC calculations : Yes
Used interface : Native Win32 interface for Win NT & 2000
Gap handling : Appended to previous track
Used output format : User Defined Encoder
Selected bitrate : 768 kBit/s
Quality : High
Add ID3 tag : No
Command line compressor : D:\Program Files\Exact Audio Copy\Flac\flac.exe
Additional command line options : -6 -V -T "ARTIST=%a" -T "TITLE=%t" -T "ALBUM=%g" -T "DATE=%y" -T "TRACKNUMBER=%n" -T "GENRE=%m" -T "COMMENT=%e" %s -o %d
TOC of the extracted CD
Track | Start | Length | Start sector | End sector
---------------------------------------------------------
1 | 0:00.00 | 9:29.51 | 0 | 42725
2 | 9:29.51 | 6:36.49 | 42726 | 72474
3 | 16:06.25 | 7:56.27 | 72475 | 108201
4 | 24:02.52 | 5:10.03 | 108202 | 131454
5 | 29:12.55 | 9:10.16 | 131455 | 172720
6 | 38:22.71 | 20:56.64 | 172721 | 266984
7 | 59:19.60 | 2:36.08 | 266985 | 278692
8 | 61:55.68 | 7:19.55 | 278693 | 311672
9 | 69:15.48 | 7:29.31 | 311673 | 345378
Track 1
Filename D:\Extraction\Amir Baghiri\2006 - Planet X\01 - Oort Cloud.wav
Pre-gap length 0:00:02.00
Peak level 100.0 %
Track quality 100.0 %
Test CRC 6734D879
Copy CRC 6734D879
Track not present in AccurateRip database
Copy OK
Track 2
Filename D:\Extraction\Amir Baghiri\2006 - Planet X\02 - Planet X.wav
Peak level 100.0 %
Track quality 100.0 %
Test CRC E09E05E6
Copy CRC E09E05E6
Track not present in AccurateRip database
Copy OK
Track 3
Filename D:\Extraction\Amir Baghiri\2006 - Planet X\03 - Halley.wav
Peak level 100.0 %
Track quality 100.0 %
Test CRC BBF7980C
Copy CRC BBF7980C
Track not present in AccurateRip database
Copy OK
Track 4
Filename D:\Extraction\Amir Baghiri\2006 - Planet X\04 - Varuna.wav
Peak level 70.4 %
Track quality 100.0 %
Test CRC 4654CADB
Copy CRC 4654CADB
Track not present in AccurateRip database
Copy OK
Track 5
Filename D:\Extraction\Amir Baghiri\2006 - Planet X\05 - Acheron.wav
Peak level 99.7 %
Track quality 99.9 %
Test CRC BB4F9C5C
Copy CRC BB4F9C5C
Track not present in AccurateRip database
Copy OK
Track 6
Filename D:\Extraction\Amir Baghiri\2006 - Planet X\06 - Quaoar.wav
Peak level 100.0 %
Track quality 99.9 %
Test CRC EC14F42A
Copy CRC EC14F42A
Track not present in AccurateRip database
Copy OK
Track 7
Filename D:\Extraction\Amir Baghiri\2006 - Planet X\07 - Callisto.wav
Peak level 61.1 %
Track quality 100.0 %
Test CRC 324D71EC
Copy CRC 324D71EC
Track not present in AccurateRip database
Copy OK
Track 8
Filename D:\Extraction\Amir Baghiri\2006 - Planet X\08 - Sedna.wav
Peak level 92.5 %
Track quality 100.0 %
Test CRC F6C1D890
Copy CRC F6C1D890
Track not present in AccurateRip database
Copy OK
Track 9
Filename D:\Extraction\Amir Baghiri\2006 - Planet X\09 - Triton.wav
Peak level 77.7 %
Track quality 100.0 %
Test CRC 86CD3400
Copy CRC 86CD3400
Track not present in AccurateRip database
Copy OK
None of the tracks are present in the AccurateRip database
No errors occurred
End of status report
-----------------------
Альбом вдохновлён экзотическим астрофизическим феноменом десятой планеты. Сочетание глубоких саундскейпов, секвенсированных пьес (по выражению Амира "многопространственный эмбиент и мелодический подход" ) и звуков окружающей среды. Опять здесь чувствуется определённое влияние музыки Стива Роуча, но начинает прослеживаться и собственный подход Амира. Приятное путешествие во сне, но никак не фоновая музыка. Высоко атмосферная и хорошо записанная музыка, заслуживающая высших оценок.
[Профиль] [ЛС]
Показать сообщения:    
Ответить на тему

Текущее время: 19-Ноя 06:52

Часовой пояс: UTC + 3



Вы не можете начинать темы
Вы не можете отвечать на сообщения
Вы не можете редактировать свои сообщения
Вы не можете удалять свои сообщения
Вы не можете голосовать в опросах
Вы не можете прикреплять файлы к сообщениям
Вы не можете скачивать файлы