Сегодня идет свободное скачивание без начисления Download

(Soft&easy for relaxing) Chamras Saewataporn - Morning (Green Music) - 2001, FLAC (image+.cue), lossless

Ответить на тему
 
Автор Сообщение

Bot ®

Стаж: 3 года 6 месяцев

Сообщений: 14

Создавать темы 09-Ноя-2018 04:17

[Цитировать]

Chamras Saewataporn - Morning (Green Music)
Жанр: Soft&easy for relaxing
Год выпуска диска: 2001
Производитель диска: Thailand
Аудио кодек: FLAC
Тип рипа: image+.cue
Битрейт аудио: lossless
Продолжительность: 57:18
Трэклист:
1.Havest 5:00
2.The long journey 5:08
3.Rice ears 4:49
4.Stream 5:35
5.Morning 5:51
6.Memory 4:52
7.Missing you 5:33
8.Endless journey 3:48
9.Friendship 4:40
10.Cloud 4:38
11.Care 1:34
12.Farewell 1:43
13.Brother & Sister 3:10
EAC log
Exact Audio Copy V0.99 prebeta 4 from 23. January 2008
EAC extraction logfile from 8. April 2009, 13:13
Chamras Saewataporn / Morning
Used drive : ASUS DRW-1814BLT Adapter: 3 ID: 0
Read mode : Secure
Utilize accurate stream : Yes
Defeat audio cache : Yes
Make use of C2 pointers : No
Read offset correction : 6
Overread into Lead-In and Lead-Out : No
Fill up missing offset samples with silence : Yes
Delete leading and trailing silent blocks : No
Null samples used in CRC calculations : Yes
Used interface : Native Win32 interface for Win NT & 2000
Used output format : User Defined Encoder
Selected bitrate : 128 kBit/s
Quality : High
Add ID3 tag : No
Command line compressor : C:\Program Files\Exact Audio Copy\Flac\flac.exe
Additional command line options : -5 -V -T "ARTIST=%a" -T "TITLE=%t" -T "ALBUM=%g" -T "DATE=%y" -T "TRACKNUMBER=%n" -T "GENRE=%m" -T "COMMENT=EAC FLAC -8" %s
TOC of the extracted CD
Track | Start | Length | Start sector | End sector
---------------------------------------------------------
1 | 0:00.00 | 5:06.22 | 0 | 22971
2 | 5:06.22 | 5:14.03 | 22972 | 46524
3 | 10:20.25 | 4:53.67 | 46525 | 68566
4 | 15:14.17 | 5:39.23 | 68567 | 94014
5 | 20:53.40 | 5:55.27 | 94015 | 120666
6 | 26:48.67 | 4:56.63 | 120667 | 142929
7 | 31:45.55 | 5:37.37 | 142930 | 168241
8 | 37:23.17 | 3:51.00 | 168242 | 185566
9 | 41:14.17 | 4:45.08 | 185567 | 206949
10 | 45:59.25 | 4:42.32 | 206950 | 228131
11 | 50:41.57 | 1:40.18 | 228132 | 235649
12 | 52:22.00 | 1:47.72 | 235650 | 243746
13 | 54:09.72 | 3:13.01 | 243747 | 258222
Range status and errors
Selected range
Filename F:\downloads\morning\Chamras Saewataporn - Morning.wav
Peak level 100.0 %
Range quality 100.0 %
Copy CRC 6F89EADA
Copy OK
No errors occurred
End of status report
[Профиль] [ЛС]
Показать сообщения:    
Ответить на тему

Текущее время: 19-Ноя 05:38

Часовой пояс: UTC + 3



Вы не можете начинать темы
Вы не можете отвечать на сообщения
Вы не можете редактировать свои сообщения
Вы не можете удалять свои сообщения
Вы не можете голосовать в опросах
Вы не можете прикреплять файлы к сообщениям
Вы не можете скачивать файлы