Сегодня идет свободное скачивание без начисления Download

Первая передача на НТВ. Автомобильная передача (02.12.2018) SATRip

Ответить на тему
 
Автор Сообщение

Bot ®

Стаж: 3 года 1 месяц

Сообщений: 8

Создавать темы 02-Дек-2018 12:32

[Цитировать]

Первая передача на НТВ. Автомобильная передача (02.12.2018) SATRip -Телекомпания: НТВ
Жанр: Автопередача
Ведущий: Алексей Куличков
Описание:
«Первая передача» — это познавательный проект про автомобилистов и для автомобилистов — для тех, что хочет из простого автолюбителя стать автопрофессионалом!
«Первая передача» не только рассказывает о типичных проблемах автовладельцев, но и помогает их решить. С кого требовать возмещение ущерба, если вы попали в яму на дороге? Что делать, если вас обманули в автосалоне? Как заставить заплатить за ремонт, если вашу машину заправили некачественным бензином?
Благодаря «Первой передаче» правила станут понятнее, а дорога — безопаснее.
Релиз от: -=FOX=-
Продолжительность: 00:29:53
Качество видео: SATRip
Видео: MPEG4, XviD, 720x448 (1.607), 25.000 fps, 1 800 Kbps (0.223 bit/pixel)
Аудио: MP3, 48.0 KHz, 2 ch, 128 Kbps, CBR
Mediainfo:
General
Complete name : Pervaya.peredacha.(2018.12.02).SATRip.avi
Format : AVI
Format/Info : Audio Video Interleave
File size : 414 MiB
Duration : 29 min 53 s
Overall bit rate : 1 937 kb/s
Writing application : VirtualDubMod 1.5.10.3 | www.virtualdub-fr.org || (build 2550/release)
Writing library : VirtualDubMod build 2550/release
Video
ID : 0
Format : MPEG-4 Visual
Format profile : Advanced Simple@L5
Format settings : BVOP2
Format settings, BVOP : 2
Format settings, QPel : No
Format settings, GMC : No warppoints
Format settings, Matrix : Default (MPEG)
Codec ID : XVID
Codec ID/Hint : XviD
Duration : 29 min 53 s
Bit rate : 1 800 kb/s
Width : 720 pixels
Height : 400 pixels
Display aspect ratio : 16:9
Frame rate : 25.000 FPS
Color space : YUV
Chroma subsampling : 4:2:0
Bit depth : 8 bits
Scan type : Progressive
Compression mode : Lossy
Bits/(Pixel*Frame) : 0.250
Stream size : 385 MiB (93%)
Writing library : XviD 73
Audio
ID : 1
Format : MPEG Audio
Format version : Version 1
Format profile : Layer 3
Codec ID : 55
Codec ID/Hint : MP3
Duration : 29 min 53 s
Bit rate mode : Constant
Bit rate : 128 kb/s
Channel(s) : 2 channels
Sampling rate : 48.0 kHz
Frame rate : 41.667 FPS (1152 SPF)
Compression mode : Lossy
Stream size : 27.4 MiB (7%)
Alignment : Aligned on interleaves
Interleave, duration : 40 ms (1.00 video frame)
Interleave, preload duratio : 504 ms
Writing library : LAME3.99r
Encoding settings : -m s -V 4 -q 2 -lowpass 17 -b 128
Скриншоты:
Все одноименные релизы в КлубеВремя раздачи: 24/7. До первых 5 скачавших.
[Профиль] [ЛС]
Показать сообщения:    
Ответить на тему

Текущее время: 17-Дек 22:37

Часовой пояс: UTC + 3



Вы не можете начинать темы
Вы не можете отвечать на сообщения
Вы не можете редактировать свои сообщения
Вы не можете удалять свои сообщения
Вы не можете голосовать в опросах
Вы не можете прикреплять файлы к сообщениям
Вы не можете скачивать файлы