Сегодня идет свободное скачивание без начисления Download

(Synthpop) Solar Fake - Broken Grid - 2008, FLAC (tracks), lossless

Ответить на тему
 
Автор Сообщение

Bot ®

Стаж: 2 года 8 месяцев

Сообщений: 11

Создавать темы Вчера, в 03:48

[Цитировать]

Solar Fake - Broken Grid
Страна: Germany
Жанр: Synthpop
Год выпуска: 2008
Формат: FLAC (tracks)
Битрейт аудио: lossless
Продолжительность: 00:52:53
Трэклист:
01-Hiding Memories From The Sun
02-Stigmata Rain
03-(You Think You're) Radical
04-The Shield
05-Creep
06-Here I Stand
07-I Keep My Eyes Shut
08-Hero & Conqueror
09-Lies
10-Sometimes
11-Your Hell Is Here
12-I Can't Remember
Отчёт EAC
Exact Audio Copy V0.99 prebeta 4 from 23. January 2008
Отчёт EAC об извлечении, выполненном 20. мая 2008, 12:48
Solar Fake / Broken Grid
Дисковод: Optiarc DVD RW AD-5200A Adapter: 0 ID: 1
Режим чтения : Достоверность
Использование точного потока : Да
Отключение кэша аудио : Да
Использование указателей C2 : Нет
Коррекция смещения при чтении : 48
Способность читать области Lead-in и Lead-out : Нет
Заполнение пропущенных сэмплов тишиной : Да
Удаление блоков с тишиной в начале и конце : Нет
При вычислениях CRC использовались нулевые сэмплы : Нет
Интерфейс : Установленный внешний ASPI-интерфейс
Обработка зазоров : Не обнаружено, добавлено к предыдущему треку
Выходной формат : Пользовательский кодировщик
Выбранный битрейт : 1024 kBit/s
Качество : Высокий
Добавление ID3-тэга : Нет
Утилита сжатия : C:\Program Files\Exact Audio Copy\FLAC\FLAC.EXE
Дополнительные параметры : -8 -V -T "ARTIST=%a" -T "TITLE=%t" -T "ALBUM=%g" -T "DATE=%y" -T "TRACKNUMBER=%n" -T "GENRE=%m" -T "COMMENT=%e" %s -o %d
Смещение при сжатии : 48
TOC извлечённого CD
Трек | Старт | Длительность | Начальный сектор | Конечный сектор
---------------------------------------------------------------------
1 | 0:00.00 | 4:13.17 | 0 | 18991
2 | 4:13.17 | 4:39.61 | 18992 | 39977
3 | 8:53.03 | 3:38.62 | 39978 | 56389
4 | 12:31.65 | 3:50.57 | 56390 | 73696
5 | 16:22.47 | 3:47.33 | 73697 | 90754
6 | 20:10.05 | 5:31.25 | 90755 | 115604
7 | 25:41.30 | 5:07.05 | 115605 | 138634
8 | 30:48.35 | 4:31.05 | 138635 | 158964
9 | 35:19.40 | 4:20.30 | 158965 | 178494
10 | 39:39.70 | 4:04.23 | 178495 | 196817
11 | 43:44.18 | 5:05.32 | 196818 | 219724
12 | 48:49.50 | 4:02.02 | 219725 | 237876
13 | 55:23.52 | 0:08.00 | 249277 | 249876
Трек 1
Имя файла C:\01-Hiding Memories From The Sun.wav
Пиковый уровень 63.6 %
Качество трека 100.0 %
CRC копии 332688C1
Копирование... OK
Трек 2
Имя файла C:\02-Stigmata Rain.wav
Пиковый уровень 64.5 %
Качество трека 100.0 %
CRC копии 23C39D04
Копирование... OK
Трек 3
Имя файла C:\03-(You Think You're) Radical.wav
Пиковый уровень 52.8 %
Качество трека 99.9 %
CRC копии 0863BBD9
Копирование... OK
Трек 4
Имя файла C:\04-The Shield.wav
Пиковый уровень 54.6 %
Качество трека 99.9 %
CRC копии 729F0619
Копирование... OK
Трек 5
Имя файла C:\05-Creep.wav
Пиковый уровень 64.3 %
Качество трека 99.9 %
CRC копии 6533750B
Копирование... OK
Трек 6
Имя файла C:\06-Here I Stand.wav
Пиковый уровень 59.5 %
Качество трека 100.0 %
CRC копии 780E51F6
Копирование... OK
Трек 7
Имя файла C:\07-I Keep My Eyes Shut.wav
Пиковый уровень 58.8 %
Качество трека 100.0 %
CRC копии 04AE1072
Копирование... OK
Трек 8
Имя файла C:\08-Hero & Conqueror.wav
Пиковый уровень 50.5 %
Качество трека 100.0 %
CRC копии 5CDCD396
Копирование... OK
Трек 9
Имя файла C:\09-Lies.wav
Пиковый уровень 55.3 %
Качество трека 100.0 %
CRC копии 0EF50F1A
Копирование... OK
Трек 10
Имя файла C:\10-Sometimes.wav
Пиковый уровень 66.9 %
Качество трека 100.0 %
CRC копии 19234D5D
Копирование... OK
Трек 11
Имя файла C:\11-Your Hell Is Here.wav
Пиковый уровень 58.7 %
Качество трека 100.0 %
CRC копии 15580447
Копирование... OK
Трек 12
Имя файла C:\12-I Can't Remember.wav
Пиковый уровень 66.1 %
Качество трека 100.0 %
CRC копии F9ED9834
Копирование... OK
Ошибок не произошло
Конец отчёта
AUDIOCHECKER
AUDIOCHECKER v2.0 beta (build 457) - by Dester - opdester@freemail.hu
~~~~~~~~~~~~~~~~~~~~~~~~~~~~~~~~~~
-=== DO NOT EDIT THIS FILE! ===-
Path: ...\Solar Fake - Broken Grid
01 -=- 01-Hiding Memories From The Sun.flac -=- MPEG (95%)
02 -=- 02-Stigmata Rain.flac -=- CDDA (100%)
03 -=- 03-(You Think You're) Radical.flac -=- CDDA (100%)
04 -=- 04-The Shield.flac -=- CDDA (100%)
05 -=- 05-Creep.flac -=- CDDA (100%)
06 -=- 06-Here I Stand.flac -=- CDDA (100%)
07 -=- 07-I Keep My Eyes Shut.flac -=- CDDA (100%)
08 -=- 08-Hero & Conqueror.flac -=- CDDA (100%)
09 -=- 09-Lies.flac -=- CDDA (100%)
10 -=- 10-Sometimes.flac -=- MPEG (95%)
11 -=- 11-Your Hell Is Here.flac -=- CDDA (100%)
12 -=- 12-I Can't Remember.flac -=- CDDA (100%)
Summary 84,17% CDDA
157512724
[Профиль] [ЛС]
Показать сообщения:    
Ответить на тему

Текущее время: 17-Дек 23:19

Часовой пояс: UTC + 3



Вы не можете начинать темы
Вы не можете отвечать на сообщения
Вы не можете редактировать свои сообщения
Вы не можете удалять свои сообщения
Вы не можете голосовать в опросах
Вы не можете прикреплять файлы к сообщениям
Вы не можете скачивать файлы