Сегодня идет свободное скачивание без начисления Download

8 Воспоминаний / 8 Remains (2018) WEBRip [MVO, AD]

Ответить на тему
Статистика раздачи
Размер:  838 MB   |    Зарегистрирован:  2 месяца 3 дня   |    Скачан:  0 раз
Сидов:  9  [  0 KB/s  ]   Подробная статистика пиров
 
   
 
 
Автор Сообщение

Bot ®

Стаж: 4 года 5 месяцев

Сообщений: 9

Создавать темы 18-Дек-2018 14:34

[Цитировать]

8 Воспоминаний / 8 Remains (2018) WEBRip - Производство: Германия / Aquaset Filmworks, J-Blockbuster
Жанр: Триллер, Детектив
Режиссер: Джулианна Блок
Актеры: Кевин Лесли, Майя-Селине Пробст, Прискилла Витман, Грегори Б. Вальдис, Энн Александр, Андреа Шнайдер, Джудит Хан, Пит Райли, Майя Маковски, Изабель Манн
Описание:
Перед своей смертью молодая женщина проживает жизнь заново, чтобы дать отпор убийце.

Дата мировой премьеры: 24 ноября 2018
Продолжительность: 01:20:31
Качество видео: WEBRip
Перевод: Двуголосый закадровый, любительский
Субтитры: Отсутствуют
Реклама: надписи, звуковые вставки и видео
Видео: XviD, 720x302, 1252 Kbps
Аудио: AC3, 2 ch, 192 Kbps
Mediainfo:
General
Complete name : K:\8_Remains_2018.avi
Format : AVI
Format/Info : Audio Video Interleave
File size : 838 MiB
Duration : 1 h 20 min
Overall bit rate : 1 455 kb/s
Writing application : Lavf57.48.101
Video
ID : 0
Format : MPEG-4 Visual
Format profile : Advanced Simple@L5
Format settings : BVOP1
Format settings, BVOP : 1
Format settings, QPel : No
Format settings, GMC : No warppoints
Format settings, Matrix : Default (H.263)
Codec ID : XVID
Codec ID/Hint : XviD
Duration : 1 h 20 min
Bit rate : 1 252 kb/s
Width : 720 pixels
Height : 302 pixels
Display aspect ratio : 2.40:1
Frame rate : 23.976 (24000/1001) FPS
Color space : YUV
Chroma subsampling : 4:2:0
Bit depth : 8 bits
Scan type : Progressive
Compression mode : Lossy
Bits/(Pixel*Frame) : 0.240
Stream size : 721 MiB (86%)
Writing library : Lavc57.54.101
Audio
ID : 1
Format : AC-3
Format/Info : Audio Coding 3
Commercial name : Dolby Digital
Codec ID : 2000
Duration : 1 h 20 min
Bit rate mode : Constant
Bit rate : 192 kb/s
Channel(s) : 2 channels
Channel layout : L R
Sampling rate : 48.0 kHz
Frame rate : 31.250 FPS (1536 SPF)
Bit depth : 16 bits
Compression mode : Lossy
Stream size : 111 MiB (13%)
Alignment : Aligned on interleaves
Interleave, duration : 32 ms (0.77 video frame)
Service kind : Complete Main
Скриншоты:
Все одноименные релизы в КлубеВремя раздачи: 24/7 (до появления первых 3-5 скачавших)
[realmt.org].t1165431.torrent 
Торрент: Зарегистрирован [ 2018-12-18 14:34 ] · 21CD4F0E39D0DFA99E5350F52DBB87F9126F7469

Скачать .torrent

Скачать

33 KB

Статус: проверено
Скачан: 0 раз
Размер: 838 MB
terms.php
Последние поблагодарившие
[Профиль] [ЛС]
Быстрый ответ

Имя:

      
Для отправки сообщений необходимо включить JavaScript
Показать сообщения:    
Ответить на тему

Текущее время: 21-Фев 22:02

Часовой пояс: UTC + 3



Вы можете начинать темы
Вы можете отвечать на сообщения
Вы не можете редактировать свои сообщения
Вы не можете удалять свои сообщения
Вы не можете голосовать в опросах
Вы не можете прикреплять файлы к сообщениям
Вы можете скачивать файлы