Сегодня идет свободное скачивание без начисления Download

Мегазаводы: БМВ / Megafactories: BMW [2008, Документальный, HDTVRip, 720p] National Geographic

Ответить на тему
 
Автор Сообщение

Bot ®

Стаж: 2 года 1 месяц

Сообщений: 11

Создавать темы 18-Дек-2018 15:47

[Цитировать]

-National Geographic.
Мегазаводы: БМВ / Megafactories: BMW
- Год выпуска: 2008
Страна: США
Жанр: Документальный
Продолжительность: 00:47:20
Перевод: Профессиональный (одноголосый)
Русские субтитры: нет
Описание: На этом заводе жидкий металл становится чистой энергией скорости. Корпус, созданный роботами, так хорошо слушается руля, что на виражах можно почувствовать перегрузку. Все вместе это дает незабываемое удовольствие от вождения. Z4 это именно то, что называют родстером. BMW называет свои автомобили идеальными автомашинами. Для того чтобы создать идеальный родстер Z4, нужен мегазавод.
Новый BMW Z4 Roadster поднимает выше планку качества выпускаемых автомобилей и вместе с этим динамических свойств. Американский дебют 2009 BMW Z4 Roadster состоялся 11 января 2009 года на Североамериканском международном автошоу в Детройте, США.
Классический родстер возвращается – ещё более мощный и стильный, чем когда-либо прежде. BMW Z4 – единственный автомобиль в своем классе, в котором сочетаются классические пропорции родстера и заднеприводного автомобиля со складывающейся жесткой крышей.
В основу дизайна Z4 легли классические линии, интерпретированные в новом стиле. Этот двухместный автомобиль – уникальная комбинация элегантности, скорости и комфорта. Для того чтобы в полной мере можно было насладиться скоростными качествами нового родстера, автомобиль комплектуется двумя типами 3,0-литровых двигателей. Первый представляет собой шестицилиндровый рядный силовой агрегат с индексом sDrive35i и рабочим объемом 3,0 литра, который в свою очередь выдаёт мощность 300 л.с. при 5800 об/мин. Второй двигатель под индексом sDrive30i также шестицилиндровый рядный, но мощностью 255 л.с. при 5800 об/мин. Оба двигателя оборудованы двойным турбокомпрессором, благодаря чему крутящий момент достигает 407 Нм при 5000 об/мин. Максимальная скорость автомобиля ограничена на отметке 240 км/ч.
-Качество: HDTV
Формат: MKV
Видео кодек: x264
Аудио кодек: MP3, AC3
Видео: 720p (1280 x 720 pixels), 25.000 fps, 2853 Kbps
Аудио Russian: MPEG Audio Layer 3, 48000Hz, Stereo, Variable, 168 Kbps
Аудио English: DD 5.1, 384 kbps
Media Info
General
Complete name : C:\National Geographic. Megafactories - BMW. (720p.HDTV.x264).mkv
Format : Matroska
File size : 1.15 GiB
Duration : 47mn 20s
Overall bit rate : 3 474 Kbps
Encoded date : UTC 2009-09-28 01:14:02
Writing application : mkvmerge v2.4.1 ('Use Me') built on Dec 5 2008 18:30:05
Writing library : libebml v0.7.7 + libmatroska v0.8.1
Video
ID : 1
Format : AVC
Format/Info : Advanced Video Codec
Format profile : High@L5.1
Format settings, CABAC : Yes
Format settings, ReFrames : 5 frames
Muxing mode : Container profile=Unknown@5.1
Codec ID : V_MPEG4/ISO/AVC
Duration : 47mn 20s
Bit rate : 2 853 Kbps
Nominal bit rate : 2 919 Kbps
Width : 1 280 pixels
Height : 720 pixels
Display aspect ratio : 16:9
Frame rate : 25.000 fps
Resolution : 24 bits
Colorimetry : 4:2:0
Scan type : Progressive
Bits/(Pixel*Frame) : 0.124
Stream size : 966 MiB (82%)
Writing library : x264 core 60 r900 a9af942
Encoding settings : cabac=1 / ref=5 / deblock=1:0:0 / analyse=0x3:0x133 / me=umh / subme=6 / brdo=1 / mixed_ref=1 / me_range=8 / chroma_me=1 / trellis=1 / 8x8dct=1 / cqm=0 / deadzone=21,11 / chroma_qp_offset=0 / threads=3 / nr=0 / decimate=1 / mbaff=0 / bframes=3 / b_pyramid=1 / b_adapt=1 / b_bias=0 / direct=3 / wpredb=1 / bime=1 / keyint=250 / keyint_min=50 / scenecut=40(pre) / rc=2pass / bitrate=2919 / ratetol=1.0 / rceq='blurCplx^(1-qComp)' / qcomp=1.00 / qpmin=10 / qpmax=51 / qpstep=4 / cplxblur=20.0 / qblur=0.5 / ip_ratio=1.40 / pb_ratio=1.30 / aq=2:1.00
Audio #1
ID : 2
Format : MPEG Audio
Format version : Version 1
Format profile : Layer 3
Codec ID : A_MPEG/L3
Codec ID/Hint : MP3
Duration : 47mn 12s
Bit rate mode : Variable
Bit rate : 168 Kbps
Minimum bit rate : 128 Kbps
Channel(s) : 2 channels
Sampling rate : 48.0 KHz
Resolution : 16 bits
Stream size : 56.7 MiB (5%)
Writing library : LAME3.96r
Encoding settings : -m j -V 0 -q 3 -lowpass 19.5 --vbr-old -b 128
Language : Russian
Audio #2
ID : 3
Format : AC-3
Format/Info : Audio Coding 3
Codec ID : A_AC3
Duration : 47mn 20s
Bit rate mode : Constant
Bit rate : 384 Kbps
Channel(s) : 6 channels
Channel positions : Front: L C R, Surround: L R, LFE
Sampling rate : 48.0 KHz
Video delay : 30ms
Stream size : 130 MiB (11%)
Language : English
Другие раздачи Мегазаводов в HD
-Мегазаводы в 720p-Мегазаводы: Вертолёты Апач. / Megafactories: Apache.
Мегазаводы: Джон Дир. / Megafactories. John Deere.
Мегазаводы: Пожарная машина. / Megafactories: Fire Truck.
Мегазаводы: Танк M1 Абрамс. / Megafactories: Tanks.
Мегазаводы: Харлей Дэвидсон. / Megafactories: Harley Davidson V-Rod.
Мегазаводы: Шевроле Корвет Z06. / Megafactories Corvette Z06.
Мегазаводы: Экспресс-доставка. / Megafactories: High Speed Delivery.-Мегазаводы: БМВ. / Ultimate Factories. BMW. (без перевода)
Мегазаводы: Дома на колесах. / Ultimate Factories. Winnebago Mega Mobile. (без перевода)
Мегазаводы: Катерпиллер / Ultimate Factories. Caterpillar. (без перевода)
Мегазаводы: Порше / Ultimate Factories. Porsche 911 GT3. (без перевода)
Мегазаводы: Феррари. / Ultimate Factories. Ferrari. (без перевода)
Магазаводы: Шевроле Корвет Z06. / Ultimate Factories. Corvette Z06. (без перевода)-Мегазаводы в 1080i-Мегазаводы: Феррари. / Megafactories: Ferrari.
Серии сезона
Episode 1 - Harley Davidson
Episode 2 - John Deere
Episode 3 - Trucks
Episode 4 - Tanks
Episode 5 - BMW
Episode 6 - Corvette
Episode 7 - Fire Truck
Episode 8 - High Speed Delivery
Episode 9 - Winnebago
Episode 10 - The Lamborghini Factory (Rides)
Episode 11 - Ferrari
Episode 12 - Apache Helicopters
Episode 13 - UPS
Episode 14 - Caterpillar
Episode 15 - Peterbilt
[Профиль] [ЛС]
Показать сообщения:    
Ответить на тему

Текущее время: 27-Мар 02:02

Часовой пояс: UTC + 3



Вы не можете начинать темы
Вы не можете отвечать на сообщения
Вы не можете редактировать свои сообщения
Вы не можете удалять свои сообщения
Вы не можете голосовать в опросах
Вы не можете прикреплять файлы к сообщениям
Вы не можете скачивать файлы