Сегодня идет свободное скачивание без начисления Download

Звоните ДиКаприо! [01-08 из 08] (2018) WEBRip от GeneralFilm | КПК

Ответить на тему
 
Автор Сообщение

Bot ®

Стаж: 9 месяцев 17 дней

Сообщений: 1584

Откуда: Вильнюс, Lithuania

Создавать темы 25-Дек-2018 12:39

[Цитировать]

Информация о фильме
Название: Укажите принятое в России название
Оригинальное название: Звоните ДиКаприо!
Год выхода: 2018
Жанр: Комедия, драма
Режиссер: Жора Крыжовников
В ролях: Александр Петров (II), Андрей Бурковский, Юлия Александрова, Юлия Хлынина, Александра Ревенко, Антон Васильев, Анна Невская, Яна Кошкина, Игорь Миркурбанов, Наталья Потапова
О фильме:
История об отношениях и судьбах двух братьев. Егор Румянцев — звезда хитового сериала про врачей. Он слетает с катушек от успеха: срывает съемки, путается в любовных связях, всем врет. Румянцев чувствует себя неуязвимым и живет для себя, ни во что не ставя чувства других людей. Но в один миг его мир переворачивается. Он узнает, что у него ВИЧ. Полная его противоположность — брат Лев. Он работает на кабельном телеканале «Муравей-ТВ», где ведет никому не нужную программу о полезных поделках. В съемной квартире его ждут беременная жена и две маленькие дочки. При этом ни денег, ни перспектив их заработать. Лев завидует брату и даже не мечтает занять его место, пока однажды ему не представляется такой шанс

Страна: Россия
Студия: Good Story Media
Продолжительность: 8 х ~ 00:45:00
Перевод: Не требуется
Файл
Формат: MP4
Качество: WEBRip | КПК
Видео: MPEG-4 AVC (x264), 640x360, ~500 kbps, 25.000 fps
Аудио: AAC LC, 48.0 KHz, 2 ch, 128 Kbps
Субтитры: Нет
Семпл
Скриншоты
MI
Complete name : F:КИНОZvonite.DiKaprio.AVC.KPK.GFZvonite.DiKaprio.S01.2018.AVC.WEB-DLRip.KPK.GFZvonite.DiKaprio.s01e02.2018.AVC.WEB-DLRip.KPK.GF.mp4
Format : MPEG-4
Codec ID : M4V (isom/iso2/avc1)
File size : 206 MiB
Duration : 45 min 20 s
Overall bit rate mode : Variable
Overall bit rate : 634 kb/s
Writing application : Lavf53.19.0
Video
ID : 1
Format : AVC
Format/Info : Advanced Video Codec
Format profile : High@L4.1
Format settings, CABAC : Yes
Format settings, RefFrames : 8 frames
Codec ID : avc1
Codec ID/Info : Advanced Video Coding
Duration : 45 min 20 s
Bit rate : 500 kb/s
Width : 640 pixels
Height : 360 pixels
Display aspect ratio : 16:9
Frame rate mode : Constant
Frame rate : 25.000 FPS
Color space : YUV
Chroma subsampling : 4:2:0
Bit depth : 8 bits
Scan type : Progressive
Bits/(Pixel*Frame) : 0.087
Stream size : 162 MiB (79%)
Writing library : x264 core 148 r2638 7599210
Encoding settings : cabac=1 / ref=8 / deblock=1:-1:-1 / analyse=0x3:0x133 / me=umh / subme=10 / psy=1 / psy_rd=1.00:0.00 / mixed_ref=1 / me_range=24 / chroma_me=1 / trellis=2 / 8x8dct=1 / cqm=0 / deadzone=21,11 / fast_pskip=1 / chroma_qp_offset=-2 / threads=6 / lookahead_threads=1 / sliced_threads=0 / nr=0 / decimate=1 / interlaced=0 / bluray_compat=0 / constrained_intra=0 / bframes=8 / b_pyramid=2 / b_adapt=2 / b_bias=0 / direct=3 / weightb=1 / open_gop=0 / weightp=2 / keyint=250 / keyint_min=126 / scenecut=40 / intra_refresh=0 / rc_lookahead=40 / rc=2pass / mbtree=1 / bitrate=500 / ratetol=1.0 / qcomp=0.60 / qpmin=0 / qpmax=69 / qpstep=4 / cplxblur=20.0 / qblur=0.5 / ip_ratio=1.40 / aq=1:1.00
Menus : 3
Audio
ID : 2
Format : AAC
Format/Info : Advanced Audio Codec
Format profile : LC
Codec ID : 40
Duration : 45 min 20 s
Bit rate mode : Variable
Bit rate : 128 kb/s
Channel(s) : 2 channels
Channel positions : Front: L R
Sampling rate : 48.0 kHz
Frame rate : 46.875 FPS (1024 SPF)
Compression mode : Lossy
Stream size : 41.5 MiB (20%)
Default : Yes
Alternate group : 1
Menus : 3
Релиз от:
[Профиль] [ЛС]
Показать сообщения:    
Ответить на тему

Текущее время: 27-Мар 03:34

Часовой пояс: UTC + 3



Вы не можете начинать темы
Вы не можете отвечать на сообщения
Вы не можете редактировать свои сообщения
Вы не можете удалять свои сообщения
Вы не можете голосовать в опросах
Вы не можете прикреплять файлы к сообщениям
Вы не можете скачивать файлы