Сегодня идет свободное скачивание без начисления Download

Красавица-воин Сейлор Мун Эр - Фильм / Sailor Moon R: The Movie - Promise of the Rose (Сато Дзюнъити) [1993, махо-сёдзё, приключения, драма, фэнтези]

Ответить на тему
 
Автор Сообщение

Bot ®

Стаж: 3 года 11 месяцев

Сообщений: 12

Создавать темы 11-Янв-2019 04:02

[Цитировать]

Красавица-воин Сейлор Мун Эр - Фильм / Sailor Moon R: The Movie - Promise of the Rose
Год выпуска: 1993
Страна: Япония
Жанр: махо-сёдзё, приключения, драма, фэнтези
Продолжительность: 60 мин
Перевод: Любительский (одноголосый)
Режиссер: Сато Дзюнъити
Описание: Sailor Moon,её четыре подруги по сражениям (Меркурий, Венера, Марс и Юпитер) и Токседо Маск спасают планету от очередного опасного создания вселенной - Ксенианского Цветка. Это только на первый взгляд красивый безобидный цветок. Ксениан поремещается по вселенной уничтожая планеты на своём пути, поглащая их энергию. И вот целый астероид этих цветов направляется к Земле и одним из носителей цветка стал Фьёре, друг детства Мамору.
Спасёт ли на этот раз Землю магия Серебрянного Кристалла? Хватит ли у Sailor Moon мужества защитить Землю, дружбу и любовь?
Формат: AVI
Видео: XVID, 23.976 fps, 640 x 368 pixels, 1340 kbps
Аудио: RU - mp3, stereo. 48 KHz, 128 kbps
Media Info
General
Complete name : D:\Down\SailorMoonR(rus.jap).avi
Format : AVI
Format/Info : Audio Video Interleave
File size : 701 MiB
Duration : 1h 0mn
Overall bit rate : 1 611 Kbps
Writing application : FairUse Wizard - http://fairusewizard.com
Writing library : The best and REALLY easy backup tool
Video
ID : 0
Format : MPEG-4 Visual
Format profile : Advanced Simple@L5
Format settings, BVOP : 1
Format settings, QPel : No
Format settings, GMC : No warppoints
Format settings, Matrix : Default (H.263)
Muxing mode : Packed bitstream
Codec ID : XVID
Codec ID/Hint : XviD
Duration : 1h 0mn
Bit rate : 1 341 Kbps
Width : 640 pixels
Height : 368 pixels
Display aspect ratio : 1.739
Frame rate : 23.976 fps
Color space : YUV
Chroma subsampling : 4:2:0
Bit depth : 8 bits
Scan type : Progressive
Compression mode : Lossy
Bits/(Pixel*Frame) : 0.237
Stream size : 584 MiB (83%)
Writing library : XviD 1.1.0 (UTC 2005-11-22)
Audio #1
ID : 1
Format : MPEG Audio
Format version : Version 1
Format profile : Layer 3
Mode : Joint stereo
Mode extension : MS Stereo
Codec ID : 55
Codec ID/Hint : MP3
Duration : 1h 0mn
Bit rate mode : Constant
Bit rate : 128 Kbps
Channel(s) : 2 channels
Sampling rate : 48.0 KHz
Compression mode : Lossy
Stream size : 55.7 MiB (8%)
Alignment : Aligned on interleaves
Interleave, duration : 42 ms (1.00 video frame)
Interleave, preload duration : 504 ms
Writing library : LAME3.97b
Encoding settings : -m j -V 4 -q 2 -lowpass 17 -b 128
Audio #2
ID : 2
Format : MPEG Audio
Format version : Version 1
Format profile : Layer 3
Mode : Joint stereo
Mode extension : MS Stereo
Codec ID : 55
Codec ID/Hint : MP3
Duration : 1h 0mn
Bit rate mode : Constant
Bit rate : 128 Kbps
Channel(s) : 2 channels
Sampling rate : 48.0 KHz
Compression mode : Lossy
Stream size : 55.7 MiB (8%)
Alignment : Aligned on interleaves
Interleave, duration : 42 ms (1.00 video frame)
Interleave, preload duration : 504 ms
Writing library : LAME3.97b
Encoding settings : -m j -V 4 -q 2 -lowpass 17 -b 128

[Профиль] [ЛС]
Показать сообщения:    
Ответить на тему

Текущее время: 25-Мар 10:54

Часовой пояс: UTC + 3



Вы не можете начинать темы
Вы не можете отвечать на сообщения
Вы не можете редактировать свои сообщения
Вы не можете удалять свои сообщения
Вы не можете голосовать в опросах
Вы не можете прикреплять файлы к сообщениям
Вы не можете скачивать файлы