Сегодня идет свободное скачивание без начисления Download

Первая передача на НТВ. Автомобильная передача (23.12.2018) SATRip

Ответить на тему
 
Автор Сообщение

Bot ®

Стаж: 4 года 3 месяца

Сообщений: 10

Создавать темы 11-Янв-2019 08:47

[Цитировать]

Первая передача на НТВ. Автомобильная передача (23.12.2018) SATRip -Телекомпания: НТВ
Жанр: Автопередача
Ведущий: Алексей Куличков
Описание:
«Первая передача» — это познавательный проект про автомобилистов и для автомобилистов — для тех, что хочет из простого автолюбителя стать автопрофессионалом!
«Первая передача» не только рассказывает о типичных проблемах автовладельцев, но и помогает их решить. С кого требовать возмещение ущерба, если вы попали в яму на дороге? Что делать, если вас обманули в автосалоне? Как заставить заплатить за ремонт, если вашу машину заправили некачественным бензином?
Благодаря «Первой передаче» правила станут понятнее, а дорога — безопаснее.
Релиз от: -=FOX=-
Продолжительность: 00:28:22
Качество видео: SATRip
Видео: MPEG4, XviD, 720x448 (1.607), 25.000 fps, 1 800 Kbps (0.223 bit/pixel)
Аудио: MP3, 48.0 KHz, 2 ch, 128 Kbps, CBR
Mediainfo:
Общее
Полное имя :Pervaya.peredacha.(2018.12.23).SATRip.avi
Формат : AVI
Формат/Информация : Audio Video Interleave
Размер файла : 393 Мбайт
Продолжительность : 28 м.
Общий поток : 1938 Кбит/сек
Программа кодирования : VirtualDubMod 1.5.10.3 | www.virtualdub-fr.org || (build 2550/release)
Библиотека кодирования : VirtualDubMod build 2550/release
Видео
Идентификатор : 0
Формат : MPEG-4 Visual
Профиль формата : Advanced Simple@L5
Параметр BVOP формата : 2
Параметр QPel формата : Нет
Параметр GMC формата : Без точки перехода
Параметр матрицы формата : Default (MPEG)
Идентификатор кодека : XVID
Идентификатор кодека/Подсказка : XviD
Продолжительность : 28 м.
Битрейт : 1800 Кбит/сек
Ширина : 720 пикселей
Высота : 448 пикселей
Соотношение сторон : 16:10
Частота кадров : 25,000 кадров/сек
Цветовое пространство : YUV
Субдискретизация насыщенности : 4:2:0
Битовая глубина : 8 бит
Тип развёртки : Прогрессивная
Метод сжатия : С потерями
Бит/(Пиксели*Кадры) : 0.223
Размер потока : 365 Мбайт (93%)
Библиотека кодирования : XviD 73
Аудио
Идентификатор : 1
Формат : MPEG Audio
Версия формата : Version 1
Профиль формата : Layer 3
Идентификатор кодека : 55
Идентификатор кодека/Подсказка : MP3
Продолжительность : 28 м.
Вид битрейта : Постоянный
Битрейт : 128 Кбит/сек
Каналы : 2 канала
Частота : 48,0 КГц
Метод сжатия : С потерями
Размер потока : 26,0 Мбайт (7%)
Выравнивание : Соединение по промежуткам
Продолжительность промежутка : 40 мс. (1,00 видеокадр)
Время предзагрузки промежутка : 504 мс.
Библиотека кодирования : LAME3.99r
Настройки программы : -m s -V 4 -q 2 -lowpass 17 -b 128
Скриншоты:
Все одноименные релизы в КлубеВремя раздачи: 24/7. До первых 5 скачавших.
[Профиль] [ЛС]
Показать сообщения:    
Ответить на тему

Текущее время: 18-Фев 03:42

Часовой пояс: UTC + 3



Вы не можете начинать темы
Вы не можете отвечать на сообщения
Вы не можете редактировать свои сообщения
Вы не можете удалять свои сообщения
Вы не можете голосовать в опросах
Вы не можете прикреплять файлы к сообщениям
Вы не можете скачивать файлы