Сегодня идет свободное скачивание без начисления Download

След (2018) SATRip (серии 2114-2117)

Ответить на тему
 
Автор Сообщение

Bot ®

Стаж: 3 года 9 месяцев

Сообщений: 12

Создавать темы 11-Янв-2019 09:17

[Цитировать]

След (2018) SATRip (серии 2114-2117) - Производство: Россия / "Объединение телевизионных компаний", DokuDrama Company
Жанр: криминал, детектив
Режиссер: Юрий Харнас, Игорь Ромащенко, Камиль Закиров
Актеры: Ольга Копосова, Владимир Ташлыков, Павел Шуваев, Георгий Тесля-Герасимов, Андрей Лавров, Анна Данькова, Сергей Пиоро, Евгений Кулаков, Анастасия Гулимова, Нина Гогаева, Руслан Сасин и др.
Описание:
Идеальных преступлений не бывает. После каждого остаются следы. Иногда эти следы бросаются в глаза. Иногда их можно найти только с помощью специальных приборов. Федеральная Экспертная служба - это уникальная лаборатория, которая объединяет несколько экспертных служб в одну и отвечает за проведение исследований во всех мыслимых областях прикладной криминалистики, будь то химическая, биологическая, медицинская экспертиза или баллистика...

Возраст: 16+ (зрителям, достигшим 16 лет)
Продолжительность: ~00:38:00 серия
Качество видео: SATRip
Видео: Xvid, 704x400 (16:9), ~1400 Kbps
Аудио: MP3, 2 ch, 128 Kbps
Mediainfo:
General
Complete name : E:\TEMP\След.2114-2117.(2018)\2114 - Паразиты и кровопийцы.avi
Format : AVI
Format/Info : Audio Video Interleave
File size : 425 MiB
Duration : 38 min 35 s
Overall bit rate : 1 539 kb/s
Writing application : VirtualDubMod 1.5.10.3 | www.virtualdub-fr.org || (build 2550/release)
Writing library : VirtualDubMod build 2550/release
Video
ID : 0
Format : MPEG-4 Visual
Format profile : Advanced Simple@L5
Format settings, BVOP : 1
Format settings, QPel : No
Format settings, GMC : No warppoints
Format settings, Matrix : Default (MPEG)
Codec ID : XVID
Codec ID/Hint : XviD
Duration : 38 min 35 s
Bit rate : 1 401 kb/s
Width : 704 pixels
Height : 400 pixels
Display aspect ratio : 16:9
Frame rate : 25.000 FPS
Color space : YUV
Chroma subsampling : 4:2:0
Bit depth : 8 bits
Scan type : Progressive
Compression mode : Lossy
Bits/(Pixel*Frame) : 0.199
Stream size : 387 MiB (91%)
Writing library : XviD 73
Audio
ID : 1
Format : MPEG Audio
Format version : Version 1
Format profile : Layer 3
Codec ID : 55
Codec ID/Hint : MP3
Duration : 38 min 35 s
Bit rate mode : Constant
Bit rate : 128 kb/s
Channel(s) : 2 channels
Sampling rate : 48.0 kHz
Compression mode : Lossy
Stream size : 35.3 MiB (8%)
Alignment : Aligned on interleaves
Interleave, duration : 40 ms (1.00 video frame)
Interleave, preload duration : 504 ms
Writing library : LAME3.99r
Encoding settings : -m s -V 4 -q 0 -lowpass 17 -b 128
Список серий:
2114 - Паразиты и кровопийцы
2115 - Не теряй голову
2116 - Остаёмся зимовать
2117 - Белеет парус одинокий
Скриншоты:
Все одноименные релизы в КлубеВремя раздачи: 24/7 (круглосуточно) (до появления первых 3-5 скачавших)
[Профиль] [ЛС]
Показать сообщения:    
Ответить на тему

Текущее время: 17-Янв 22:02

Часовой пояс: UTC + 3



Вы не можете начинать темы
Вы не можете отвечать на сообщения
Вы не можете редактировать свои сообщения
Вы не можете удалять свои сообщения
Вы не можете голосовать в опросах
Вы не можете прикреплять файлы к сообщениям
Вы не можете скачивать файлы